<?xml version="1.0" standalone="no"?>
<!DOCTYPE svg PUBLIC "-//W3C//DTD SVG 1.1//EN" "http://www.w3.org/Graphics/SVG/1.1/DTD/svg11.dtd" >
<svg xmlns="http://www.w3.org/2000/svg" xmlns:xlink="http://www.w3.org/1999/xlink" version="1.1">
<metadata>
Created by FontForge 20201107 at Wed Nov 22 16:37:21 2023
 By 
Copyright 2022 The Noto Project Authors (https://github.com/notofonts/arabic)
</metadata>
<defs>
<font id="NotoNaskhArabic-Regular" horiz-adv-x="0" >
  <font-face 
    font-family="Noto Naskh Arabic"
    font-weight="400"
    font-stretch="normal"
    units-per-em="1000"
    panose-1="0 0 0 0 0 0 0 0 0 0"
    ascent="800"
    descent="-200"
    bbox="-247 -590 12160 1405"
    underline-thickness="50"
    underline-position="-100"
    unicode-range="U+000D-10EFF"
  />
<missing-glyph horiz-adv-x="646" 
d="M81 -271v1327h483v-1327h-483zM153 -199h339v1183h-339v-1183z" />
    <glyph glyph-name="uniFDF2" unicode="&#xfe8d;&#xfedf;&#xfee0;&#x651;&#x670;&#xfeea;" horiz-adv-x="1190" arabic-form="isolated" 
d="M1056 0q-1 88 -3.5 168t-6 153t-7.5 138t-10 123q-2 27 3.5 45t21 28.5t41.5 15.5q4 -19 13.5 -51.5t21.5 -67.5l-27 -23q4 -74 5.5 -152t0 -168t-6.5 -201zM460 0q-60 0 -97 23t-44 64l-6 36l-34 -64q-36 3 -56.5 6t-33.5 7t-28 9q-18 7 -39.5 18.5t-37.5 25t-16 26.5
q0 7 4 20t11 29t15 33q10 21 29.5 40t44.5 36.5t51.5 32t51.5 24.5l-5 42q10 9 21.5 18.5t25.5 19t29 18.5l10 -361q44 -27 106 -27q54 0 108 26q-8 69 -14.5 125.5t-11.5 100.5t-8.5 75.5t-5.5 50.5q14 14 30.5 28t37.5 28l11 -407q47 -27 106 -27q30 0 57.5 7t52.5 20
q-3 36 -6 73t-7 74q-7 89 -17 180t-21 185q15 16 32 29.5t36 26.5q7 -114 11.5 -195t7 -136.5t4 -93t2.5 -63t1 -48.5q0 -33 -35 -100q-10 -18 -40.5 -26.5t-80.5 -8.5q-36 0 -64.5 9t-48.5 27q-25 -14 -46 -22t-43 -11t-50 -3zM311 140q-7 41 -14 81.5t-13 80.5
q-56 -19 -100 -46.5t-67 -58.5q39 -34 87.5 -45t106.5 -12zM512 574q-20 0 -33 13t-13 37t13 46l15 -3q-4 -13 -4 -27q0 -28 24 -28q11 0 19 9t8 22l-1 35l23 15q4 -27 12 -42.5t31 -15.5q6 0 12 4t7 8q-1 5 -5 15.5t-11 25.5l-2 9q0 10 8.5 19t18.5 12q11 -21 15 -40t4 -29
q0 -25 -16 -44t-39 -19q-8 0 -18.5 4t-17.5 13q-7 -19 -21.5 -29t-28.5 -10zM542 713l-5 2q-1 19 -3 43.5t-7 55.5l-2 19q0 16 8 23.5t22 11.5q6 -39 6 -82q0 -45 -19 -73z" />
    <glyph glyph-name="uniFE80" unicode="&#x621;" horiz-adv-x="437" arabic-form="isolated" 
d="M68 -37l-14 42q13 5 26.5 10t29.5 11t36 13q-6 4 -11 7.5t-8 6.5q-13 14 -21.5 30t-8.5 33q0 28 13.5 58t36.5 55.5t52 37.5q11 5 22 7.5t23 2.5q35 0 57 -18.5t22 -55.5q0 -11 -3.5 -23.5t-8.5 -21.5q-10 3 -16 5.5t-14 6.5q4 6 5.5 12t2.5 13q-6 6 -19 9t-22 3
q-29 0 -60.5 -18t-52.5 -46q8 -19 20 -32.5t29 -23.5q11 -6 27.5 -12t30.5 -10q6 2 13 4t14 3q24 7 49.5 11.5t47.5 8.5q12 2 21.5 3t16.5 2q8 -8 11.5 -17t3.5 -18q0 -22 -14 -34t-33 -14q-36 -4 -75 -8t-66 -9q-18 -3 -38.5 -7t-49.5 -10t-75 -17z" />
    <glyph glyph-name="uniFE81" unicode="&#x622;" horiz-adv-x="238" arabic-form="isolated" 
d="M104 0q-1 88 -3.5 168t-6 153t-7.5 138t-10 123q-2 27 3.5 45t21 28.5t41.5 15.5q4 -19 13.5 -51.5t21.5 -67.5l-27 -23q4 -74 5.5 -152t0 -168t-6.5 -201zM-3 729l-12 21q59 47 66 47l17 -2q29 -7 50 -10.5t34 -3.5q17 0 41.5 5.5t38.5 12.5l8 -22q-20 -20 -47 -33
t-45 -13q-46 0 -103 21z" />
    <glyph glyph-name="uniFE83" unicode="&#x623;" horiz-adv-x="238" arabic-form="isolated" 
d="M104 0q-1 88 -3.5 168t-6 153t-7.5 138t-10 123q-2 27 3.5 45t21 28.5t41.5 15.5q4 -19 13.5 -51.5t21.5 -67.5l-27 -23q4 -74 5.5 -152t0 -168t-6.5 -201zM50 710l-3 39l40 22q-37 6 -37 40q0 19 11 37t28 30t35 12q39 0 39 -37q0 -14 -7 -27l-19 5l1 4q0 5 -4 9t-9 4
q-16 0 -28.5 -11.5t-18.5 -26.5q17 -20 48 -20q9 0 21 1.5t28 4.5l-2 -38q-41 -10 -67.5 -21t-55.5 -27z" />
    <glyph glyph-name="uniFE85" unicode="&#x624;" horiz-adv-x="468" arabic-form="isolated" 
d="M193 -203q-21 0 -51.5 9.5t-60 24.5t-47.5 30l14 33q27 -10 57.5 -14.5t64.5 -4.5q75 0 128.5 44.5t81.5 129.5l-1 8q-29 -28 -64 -42.5t-70 -14.5q-58 0 -91.5 35.5t-33.5 93.5q0 51 20.5 100.5t53.5 80.5q33 30 67 30q39 0 74.5 -34.5t58.5 -98.5q12 -32 17.5 -63.5
t5.5 -62.5q0 -47 -14.5 -94t-40 -86.5t-59.5 -65.5q-52 -38 -110 -38zM269 82q25 0 45.5 4t55.5 18q-12 47 -34 83t-48 53q-21 15 -42 15t-41 -15.5t-34 -39.5q-13 -24 -13 -43q0 -36 29 -55.5t82 -19.5zM186 365l-3 39l40 22q-37 6 -37 40q0 19 11 37t28 30t35 12
q39 0 39 -37q0 -14 -7 -27l-19 5l1 4q0 5 -4 9t-9 4q-16 0 -28.5 -11.5t-18.5 -26.5q17 -20 48 -20q9 0 21 1.5t28 4.5l-2 -38q-41 -10 -67.5 -21t-55.5 -27z" />
    <glyph glyph-name="uniFE87" unicode="&#x625;" horiz-adv-x="238" arabic-form="isolated" 
d="M104 0q-1 88 -3.5 168t-6 153t-7.5 138t-10 123q-2 27 3.5 45t21 28.5t41.5 15.5q4 -19 13.5 -51.5t21.5 -67.5l-27 -23q4 -74 5.5 -152t0 -168t-6.5 -201zM69 -225l-3 39l40 22q-37 6 -37 40q0 19 11 37t28 30t35 12q39 0 39 -37q0 -14 -7 -27l-19 5l1 4q0 5 -4 9t-9 4
q-16 0 -28.5 -11.5t-18.5 -26.5q17 -20 48 -20q9 0 21 1.5t28 4.5l-2 -38q-41 -10 -67.5 -21t-55.5 -27z" />
    <glyph glyph-name="uniFE89" unicode="&#x626;" horiz-adv-x="618" arabic-form="isolated" 
d="M249 -262q-85 0 -133 49t-48 139q0 20 1.5 37t5.5 38.5t12 54.5l37 -9q-11 -46 -11 -71q0 -73 36.5 -114t101.5 -41q36 0 78 8.5t83 24t72 35.5q24 15 40 31t23 32q-13 2 -25.5 4t-26.5 3q-76 6 -113 18.5t-57 40.5q-19 28 -19 73q0 31 14.5 68t40.5 73.5t58 64.5
q49 43 88 43q34 0 51 -23t26 -64l-36 -10q-7 10 -13.5 12.5t-18.5 2.5q-17 0 -41.5 -12.5t-49 -34t-45.5 -47.5q-31 -42 -38 -77q14 -13 42 -22.5t68 -15.5q36 -5 61 -11.5t40 -16.5q17 -12 23.5 -28.5t6.5 -39.5q0 -30 -25.5 -64t-68 -65t-95.5 -53q-78 -33 -145 -33z
M78 93l-3 39l40 22q-37 6 -37 40q0 19 11 37t28 30t35 12q39 0 39 -37q0 -14 -7 -27l-19 5l1 4q0 5 -4 9t-9 4q-16 0 -28.5 -11.5t-18.5 -26.5q17 -20 48 -20q9 0 21 1.5t28 4.5l-2 -38q-41 -10 -67.5 -21t-55.5 -27z" />
    <glyph glyph-name="uniFE8D" unicode="&#x627;" horiz-adv-x="238" arabic-form="isolated" 
d="M104 0q-1 88 -3.5 168t-6 153t-7.5 138t-10 123q-2 27 3.5 45t21 28.5t41.5 15.5q4 -19 13.5 -51.5t21.5 -67.5l-27 -23q4 -74 5.5 -152t0 -168t-6.5 -201z" />
    <glyph glyph-name="uniFE8F" unicode="&#x628;" horiz-adv-x="772" arabic-form="isolated" 
d="M314 0q-118 0 -181 42.5t-63 127.5q0 64 13 110h36q-1 -4 -2 -20.5t-1 -28.5q0 -58 22 -89.5t70 -48.5q24 -8 55.5 -12.5t71.5 -4.5q93 0 182 19t158 52q-5 21 -14 48.5t-22 61.5q-10 26 -14.5 42.5t-4.5 24.5q0 21 17 43.5t49 40.5q11 -49 19 -89.5t13 -72t5 -55.5
q0 -17 -9 -42.5t-26 -59.5q-44 -28 -101 -48t-125.5 -30.5t-147.5 -10.5zM380 -206q-44 33 -72 65q26 26 43 44t27 29q16 -17 32.5 -33.5t33.5 -31.5q-11 -16 -27.5 -34.5t-36.5 -38.5z" />
    <glyph glyph-name="uniFE93" unicode="&#x629;" horiz-adv-x="408" arabic-form="isolated" 
d="M190 0q-55 0 -88.5 33t-33.5 93q0 47 23.5 94t75.5 96q-16 9 -20.5 21t-4.5 23q0 16 7.5 30t18.5 18q45 -16 88 -53t72 -88q29 -50 29 -91q0 -15 -6.5 -37t-17 -45t-22 -41t-22.5 -25q-21 -14 -45.5 -21t-53.5 -7zM201 80q27 0 59 14.5t48 29.5q-10 50 -38.5 92.5
t-74.5 77.5q-37 -34 -59 -72t-22 -67q0 -35 23 -55t64 -20zM263 468q-22 17 -38.5 32.5t-27.5 29.5q5 5 21 22t43 45q6 -6 21.5 -21t40.5 -39q-19 -30 -60 -69zM113 454q-22 18 -39 33.5t-28 27.5q14 13 30 29.5t35 38.5q6 -7 21 -22t40 -38q-9 -15 -24 -32t-35 -37z" />
    <glyph glyph-name="uniFE95" unicode="&#x62a;" horiz-adv-x="772" arabic-form="isolated" 
d="M314 0q-118 0 -181 42.5t-63 127.5q0 64 13 110h36q-1 -4 -2 -20.5t-1 -28.5q0 -58 22 -89.5t70 -48.5q24 -8 55.5 -12.5t71.5 -4.5q93 0 182 19t158 52q-5 21 -14 48.5t-22 61.5q-10 26 -14.5 42.5t-4.5 24.5q0 21 17 43.5t49 40.5q11 -49 19 -89.5t13 -72t5 -55.5
q0 -17 -9 -42.5t-26 -59.5q-44 -28 -101 -48t-125.5 -30.5t-147.5 -10.5zM436 328q-22 17 -38.5 32.5t-27.5 29.5q5 5 21 22t43 45q6 -6 21.5 -21t40.5 -39q-19 -30 -60 -69zM286 314q-22 18 -39 33.5t-28 27.5q14 13 30 29.5t35 38.5q6 -7 21 -22t40 -38q-9 -15 -24 -32
t-35 -37z" />
    <glyph glyph-name="uniFE99" unicode="&#x62b;" horiz-adv-x="772" arabic-form="isolated" 
d="M314 0q-118 0 -181 42.5t-63 127.5q0 64 13 110h36q-1 -4 -2 -20.5t-1 -28.5q0 -58 22 -89.5t70 -48.5q24 -8 55.5 -12.5t71.5 -4.5q93 0 182 19t158 52q-5 21 -14 48.5t-22 61.5q-10 26 -14.5 42.5t-4.5 24.5q0 21 17 43.5t49 40.5q11 -49 19 -89.5t13 -72t5 -55.5
q0 -17 -9 -42.5t-26 -59.5q-44 -28 -101 -48t-125.5 -30.5t-147.5 -10.5zM297 314q-19 15 -34 29t-26 26q12 11 26.5 26.5t31.5 34.5q5 -6 19 -19.5t36 -35.5q-9 -13 -22 -28.5t-31 -32.5zM439 327q-17 14 -31.5 27.5t-27.5 27.5q9 8 24 23.5t34 37.5q14 -14 27.5 -28
t27.5 -27q-10 -14 -23 -29.5t-31 -31.5zM368 409q-13 8 -27.5 20.5t-28.5 28.5q15 15 28.5 29t24.5 27q10 -13 23.5 -26.5t31.5 -29.5q-14 -16 -27.5 -28.5t-24.5 -20.5z" />
    <glyph glyph-name="uniFE9D" unicode="&#x62c;" horiz-adv-x="636" arabic-form="isolated" 
d="M360 -287q-124 0 -191.5 63t-67.5 182q0 62 30.5 123.5t84.5 108.5q27 23 56.5 41t60.5 30q-12 5 -37.5 13.5t-53.5 15.5t-50 7q-30 0 -51.5 -7.5t-57.5 -30.5q-6 5 -10.5 15.5t-4.5 22.5q0 38 33.5 61t87.5 23q43 0 84.5 -11t83.5 -24t85 -24t89 -11l66 2l-29 -77
q-9 -1 -18.5 -2t-19 -1.5t-18.5 -0.5q-41 -3 -88 -15.5t-91.5 -32.5t-81.5 -46q-55 -38 -85 -84t-30 -96q0 -52 25 -88.5t75.5 -55.5t126.5 -19q62 0 123 7.5t121 20.5l12 -33q-49 -27 -93.5 -44t-85.5 -25t-80 -8zM376 -74q-44 33 -72 65q26 26 43 44t27 29
q16 -17 32.5 -33.5t33.5 -31.5q-11 -16 -27.5 -34.5t-36.5 -38.5z" />
    <glyph glyph-name="uniFEA1" unicode="&#x62d;" horiz-adv-x="636" arabic-form="isolated" 
d="M360 -287q-124 0 -191.5 63t-67.5 182q0 62 30.5 123.5t84.5 108.5q27 23 56.5 41t60.5 30q-12 5 -37.5 13.5t-53.5 15.5t-50 7q-30 0 -51.5 -7.5t-57.5 -30.5q-6 5 -10.5 15.5t-4.5 22.5q0 38 33.5 61t87.5 23q43 0 84.5 -11t83.5 -24t85 -24t89 -11l66 2l-29 -77
q-9 -1 -18.5 -2t-19 -1.5t-18.5 -0.5q-41 -3 -88 -15.5t-91.5 -32.5t-81.5 -46q-55 -38 -85 -84t-30 -96q0 -52 25 -88.5t75.5 -55.5t126.5 -19q62 0 123 7.5t121 20.5l12 -33q-49 -27 -93.5 -44t-85.5 -25t-80 -8z" />
    <glyph glyph-name="uniFEA5" unicode="&#x62e;" horiz-adv-x="636" arabic-form="isolated" 
d="M360 -287q-124 0 -191.5 63t-67.5 182q0 62 30.5 123.5t84.5 108.5q27 23 56.5 41t60.5 30q-12 5 -37.5 13.5t-53.5 15.5t-50 7q-30 0 -51.5 -7.5t-57.5 -30.5q-6 5 -10.5 15.5t-4.5 22.5q0 38 33.5 61t87.5 23q43 0 84.5 -11t83.5 -24t85 -24t89 -11l66 2l-29 -77
q-9 -1 -18.5 -2t-19 -1.5t-18.5 -0.5q-41 -3 -88 -15.5t-91.5 -32.5t-81.5 -46q-55 -38 -85 -84t-30 -96q0 -52 25 -88.5t75.5 -55.5t126.5 -19q62 0 123 7.5t121 20.5l12 -33q-49 -27 -93.5 -44t-85.5 -25t-80 -8zM340 443q-44 33 -72 65q26 26 43 44t27 29
q16 -17 32.5 -33.5t33.5 -31.5q-11 -16 -27.5 -34.5t-36.5 -38.5z" />
    <glyph glyph-name="uniFEA9" unicode="&#x62f;" horiz-adv-x="414" arabic-form="isolated" 
d="M156 0q-122 0 -122 63q0 17 4.5 30t13.5 23q25 -20 57 -30t79 -10q67 0 136 21q-8 22 -18.5 45t-23.5 46q-27 48 -40 73t-17 40t-4 31q0 25 13 41.5t39 24.5q9 -22 20.5 -49t23.5 -53t20 -45q15 -32 25 -59.5t10 -50.5q0 -10 -4 -26t-12 -35.5t-20 -40.5q-36 -19 -81 -29
t-99 -10z" />
    <glyph glyph-name="uniFEAB" unicode="&#x630;" horiz-adv-x="414" arabic-form="isolated" 
d="M156 0q-122 0 -122 63q0 17 4.5 30t13.5 23q25 -20 57 -30t79 -10q67 0 136 21q-8 22 -18.5 45t-23.5 46q-27 48 -40 73t-17 40t-4 31q0 25 13 41.5t39 24.5q9 -22 20.5 -49t23.5 -53t20 -45q15 -32 25 -59.5t10 -50.5q0 -10 -4 -26t-12 -35.5t-20 -40.5q-36 -19 -81 -29
t-99 -10zM218 459q-44 33 -72 65q26 26 43 44t27 29q16 -17 32.5 -33.5t33.5 -31.5q-11 -16 -27.5 -34.5t-36.5 -38.5z" />
    <glyph glyph-name="uniFEAD" unicode="&#x631;" horiz-adv-x="386" arabic-form="isolated" 
d="M111 -204q-16 0 -40.5 9t-49.5 22t-41 25l13 33q28 -5 51.5 -8t43.5 -3q75 0 128.5 45t81.5 130q-7 16 -14.5 31.5t-16.5 31.5q-34 61 -50 97.5t-16 61.5q0 26 15 41.5t43 28.5q4 -16 12 -39t17 -46.5t16 -43.5q13 -35 22 -69t9 -62q0 -78 -29.5 -144.5t-80.5 -103.5
q-52 -37 -114 -37z" />
    <glyph glyph-name="uniFEAF" unicode="&#x632;" horiz-adv-x="386" arabic-form="isolated" 
d="M111 -204q-16 0 -40.5 9t-49.5 22t-41 25l13 33q28 -5 51.5 -8t43.5 -3q75 0 128.5 45t81.5 130q-7 16 -14.5 31.5t-16.5 31.5q-34 61 -50 97.5t-16 61.5q0 26 15 41.5t43 28.5q4 -16 12 -39t17 -46.5t16 -43.5q13 -35 22 -69t9 -62q0 -78 -29.5 -144.5t-80.5 -103.5
q-52 -37 -114 -37zM203 398q-44 33 -72 65q26 26 43 44t27 29q16 -17 32.5 -33.5t33.5 -31.5q-11 -16 -27.5 -34.5t-36.5 -38.5z" />
    <glyph glyph-name="uniFEB1" unicode="&#x633;" horiz-adv-x="1013" arabic-form="isolated" 
d="M249 -262q-85 0 -133 49t-48 139q0 20 1.5 37t5.5 38.5t12 54.5l37 -9q-11 -46 -11 -71q0 -73 36.5 -114t101.5 -41q50 0 100.5 16.5t90.5 45t56 63.5q-33 71 -49 119t-16 72q0 26 14.5 46.5t50.5 42.5q2 -14 4.5 -30.5t7.5 -42t13 -68.5q15 -4 30 -6.5t30 -2.5
q28 0 50 3t38 7q7 12 12 29q12 41 21 67.5t14 36.5q8 20 16 26.5t24 6.5q14 0 24 -7q-7 -15 -18 -46.5t-25 -80.5q50 -22 90 -30.5t86 -8.5q-6 20 -15 47.5t-23 61.5q-10 26 -15 43.5t-5 24.5q0 22 17.5 44.5t48.5 39.5q4 -24 11.5 -58t12.5 -57q6 -27 10.5 -53t4.5 -49
q0 -10 -5.5 -32.5t-14 -47t-18.5 -43.5q-64 0 -111 9t-101 34l-9 -16q-7 -12 -45 -20q-18 -4 -39.5 -5.5t-47.5 -1.5q-9 0 -18 0.5t-18 1.5v-19q0 -61 -39 -117.5t-107 -91.5q-34 -18 -69 -27t-71 -9z" />
    <glyph glyph-name="uniFEB5" unicode="&#x634;" horiz-adv-x="1013" arabic-form="isolated" 
d="M249 -262q-85 0 -133 49t-48 139q0 20 1.5 37t5.5 38.5t12 54.5l37 -9q-11 -46 -11 -71q0 -73 36.5 -114t101.5 -41q50 0 100.5 16.5t90.5 45t56 63.5q-33 71 -49 119t-16 72q0 26 14.5 46.5t50.5 42.5q2 -14 4.5 -30.5t7.5 -42t13 -68.5q15 -4 30 -6.5t30 -2.5
q28 0 50 3t38 7q7 12 12 29q12 41 21 67.5t14 36.5q8 20 16 26.5t24 6.5q14 0 24 -7q-7 -15 -18 -46.5t-25 -80.5q50 -22 90 -30.5t86 -8.5q-6 20 -15 47.5t-23 61.5q-10 26 -15 43.5t-5 24.5q0 22 17.5 44.5t48.5 39.5q4 -24 11.5 -58t12.5 -57q6 -27 10.5 -53t4.5 -49
q0 -10 -5.5 -32.5t-14 -47t-18.5 -43.5q-64 0 -111 9t-101 34l-9 -16q-7 -12 -45 -20q-18 -4 -39.5 -5.5t-47.5 -1.5q-9 0 -18 0.5t-18 1.5v-19q0 -61 -39 -117.5t-107 -91.5q-34 -18 -69 -27t-71 -9zM651 312q-19 15 -34 29t-26 26q12 11 26.5 26.5t31.5 34.5
q5 -6 19 -19.5t36 -35.5q-9 -13 -22 -28.5t-31 -32.5zM793 325q-17 14 -31.5 27.5t-27.5 27.5q9 8 24 23.5t34 37.5q14 -14 27.5 -28t27.5 -27q-10 -14 -23 -29.5t-31 -31.5zM722 407q-13 8 -27.5 20.5t-28.5 28.5q15 15 28.5 29t24.5 27q10 -13 23.5 -26.5t31.5 -29.5
q-14 -16 -27.5 -28.5t-24.5 -20.5z" />
    <glyph glyph-name="uniFEB9" unicode="&#x635;" horiz-adv-x="1096" arabic-form="isolated" 
d="M249 -262q-85 0 -133 49t-48 139q0 20 1.5 37t5.5 38.5t12 54.5l37 -9q-11 -46 -11 -71q0 -73 36.5 -114t101.5 -41q50 0 100.5 16.5t90.5 45t56 63.5q-33 71 -49 119t-16 72q0 26 14.5 46.5t50.5 42.5q2 -14 7 -43t13 -72l23 -8q101 131 181 192.5t146 61.5
q21 0 47 -11.5t52.5 -30.5t46.5 -43q30 -34 30 -61q0 -61 -38.5 -107.5t-117.5 -75.5q-77 -28 -165 -28q-50 0 -98 6t-92 18q1 -10 1.5 -20t0.5 -21q0 -61 -39 -117.5t-107 -91.5q-34 -18 -69 -27t-71 -9zM732 76q65 0 132 21.5t136 64.5q-31 53 -73.5 82t-83.5 29
q-32 0 -73.5 -22t-87.5 -63t-94 -98q41 -7 77 -10.5t67 -3.5z" />
    <glyph glyph-name="uniFEBD" unicode="&#x636;" horiz-adv-x="1096" arabic-form="isolated" 
d="M249 -262q-85 0 -133 49t-48 139q0 20 1.5 37t5.5 38.5t12 54.5l37 -9q-11 -46 -11 -71q0 -73 36.5 -114t101.5 -41q50 0 100.5 16.5t90.5 45t56 63.5q-33 71 -49 119t-16 72q0 26 14.5 46.5t50.5 42.5q2 -14 7 -43t13 -72l23 -8q101 131 181 192.5t146 61.5
q21 0 47 -11.5t52.5 -30.5t46.5 -43q30 -34 30 -61q0 -61 -38.5 -107.5t-117.5 -75.5q-77 -28 -165 -28q-50 0 -98 6t-92 18q1 -10 1.5 -20t0.5 -21q0 -61 -39 -117.5t-107 -91.5q-34 -18 -69 -27t-71 -9zM732 76q65 0 132 21.5t136 64.5q-31 53 -73.5 82t-83.5 29
q-32 0 -73.5 -22t-87.5 -63t-94 -98q41 -7 77 -10.5t67 -3.5zM727 448q-44 33 -72 65q26 26 43 44t27 29q16 -17 32.5 -33.5t33.5 -31.5q-11 -16 -27.5 -34.5t-36.5 -38.5z" />
    <glyph glyph-name="uniFEC1" unicode="&#x637;" horiz-adv-x="769" arabic-form="isolated" 
d="M396 0q-40 0 -81 2t-73.5 4.5t-49.5 5.5q-17 4 -45 16t-56.5 28t-48.5 30l11 35q37 -9 74.5 -17t76.5 -14q15 19 29.5 37t28.5 35q-32 176 -48.5 283.5t-16.5 146.5q0 34 16 53t51 26q5 -24 13.5 -50.5t21.5 -68.5l-27 -23q2 -16 4.5 -37.5t5 -45.5t5 -49t5 -47t4 -38.5
t2.5 -25.5q2 -21 2.5 -40.5t1.5 -38.5q141 150 240 150q19 0 44 -10.5t51.5 -29t48.5 -42.5q32 -37 32 -64q0 -61 -39 -108t-118 -75q-77 -28 -165 -28zM406 76q65 0 132 21.5t135 64.5q-30 53 -72.5 82t-83.5 29q-49 0 -118.5 -50t-143.5 -140q38 -4 76 -5.5t75 -1.5z" />
    <glyph glyph-name="uniFEC5" unicode="&#x638;" horiz-adv-x="769" arabic-form="isolated" 
d="M396 0q-40 0 -81 2t-73.5 4.5t-49.5 5.5q-17 4 -45 16t-56.5 28t-48.5 30l11 35q37 -9 74.5 -17t76.5 -14q15 19 29.5 37t28.5 35q-32 176 -48.5 283.5t-16.5 146.5q0 34 16 53t51 26q5 -24 13.5 -50.5t21.5 -68.5l-27 -23q2 -16 4.5 -37.5t5 -45.5t5 -49t5 -47t4 -38.5
t2.5 -25.5q2 -21 2.5 -40.5t1.5 -38.5q141 150 240 150q19 0 44 -10.5t51.5 -29t48.5 -42.5q32 -37 32 -64q0 -61 -39 -108t-118 -75q-77 -28 -165 -28zM406 76q65 0 132 21.5t135 64.5q-30 53 -72.5 82t-83.5 29q-49 0 -118.5 -50t-143.5 -140q38 -4 76 -5.5t75 -1.5z
M517 448q-44 33 -72 65q26 26 43 44t27 29q16 -17 32.5 -33.5t33.5 -31.5q-11 -16 -27.5 -34.5t-36.5 -38.5z" />
    <glyph glyph-name="uniFEC9" unicode="&#x639;" horiz-adv-x="604" arabic-form="isolated" 
d="M372 -286q-78 0 -136 26.5t-90 75.5t-32 114q0 112 81 199q-31 9 -59.5 31t-45.5 50q-17 27 -17 61q0 29 10.5 59.5t29 58t43.5 46.5q35 29 77 29q35 0 64 -15t73 -51l-17 -32q-30 9 -53.5 13.5t-41.5 4.5q-31 0 -63 -9t-65 -27q0 -59 41 -98t114 -51q37 23 80.5 42.5
t94.5 35.5q11 -16 11 -31q0 -13 -6 -24t-21 -22q-14 -10 -36 -20t-48 -20q-75 -32 -118.5 -64t-66.5 -67q-12 -20 -18.5 -40.5t-6.5 -42.5q0 -71 57 -110t168 -39q25 0 48 1t45 3q39 3 75.5 9t74.5 15l11 -34q-69 -38 -133.5 -57.5t-123.5 -19.5z" />
    <glyph glyph-name="uniFECD" unicode="&#x63a;" horiz-adv-x="604" arabic-form="isolated" 
d="M372 -286q-78 0 -136 26.5t-90 75.5t-32 114q0 112 81 199q-31 9 -59.5 31t-45.5 50q-17 27 -17 61q0 29 10.5 59.5t29 58t43.5 46.5q35 29 77 29q35 0 64 -15t73 -51l-17 -32q-30 9 -53.5 13.5t-41.5 4.5q-31 0 -63 -9t-65 -27q0 -59 41 -98t114 -51q37 23 80.5 42.5
t94.5 35.5q11 -16 11 -31q0 -13 -6 -24t-21 -22q-14 -10 -36 -20t-48 -20q-75 -32 -118.5 -64t-66.5 -67q-12 -20 -18.5 -40.5t-6.5 -42.5q0 -71 57 -110t168 -39q25 0 48 1t45 3q39 3 75.5 9t74.5 15l11 -34q-69 -38 -133.5 -57.5t-123.5 -19.5zM227 535q-44 33 -72 65
q26 26 43 44t27 29q16 -17 32.5 -33.5t33.5 -31.5q-11 -16 -27.5 -34.5t-36.5 -38.5z" />
    <glyph glyph-name="uniFED1" unicode="&#x641;" horiz-adv-x="848" arabic-form="isolated" 
d="M320 0q-126 0 -189 42.5t-63 127.5q0 32 3.5 59t10.5 51h36q-2 -12 -3 -24.5t-1 -24.5q0 -61 22.5 -91.5t72.5 -47.5q26 -7 59 -11.5t74 -4.5q50 0 107 5.5t113.5 15t105.5 22.5t82 28q-3 20 -6 39.5t-8 38.5q-33 -27 -68.5 -41t-73.5 -14q-43 0 -71 33t-28 84
q0 50 16.5 93.5t42.5 69.5q29 31 65 31q50 0 90.5 -36t64.5 -104q11 -34 17 -71.5t6 -78.5v-27t-7 -35t-28 -40q-30 -23 -78 -40t-108 -28t-125.5 -16t-130.5 -5zM618 246q24 0 50.5 6.5t54.5 18.5q-19 61 -49.5 93t-69.5 32q-30 0 -50.5 -27.5t-20.5 -61.5
q0 -32 20.5 -46.5t64.5 -14.5zM617 538q-44 33 -72 65q26 26 43 44t27 29q16 -17 32.5 -33.5t33.5 -31.5q-11 -16 -27.5 -34.5t-36.5 -38.5z" />
    <glyph glyph-name="uniFED5" unicode="&#x642;" horiz-adv-x="647" arabic-form="isolated" 
d="M266 -262q-94 0 -146 49.5t-52 138.5q0 20 1.5 37t5.5 38.5t12 54.5l37 -9q-11 -46 -11 -71q0 -76 40 -115.5t116 -39.5q52 0 107.5 16t99.5 45q23 14 40 31t29 36q-1 32 -3.5 59.5t-7.5 51.5q-32 -30 -65.5 -45t-71.5 -15q-57 0 -91 35.5t-34 93.5q0 51 20.5 100.5
t53.5 80.5q33 30 67 30q47 0 90.5 -42.5t68.5 -111.5q24 -67 24 -145q0 -63 -25 -117t-72 -95q-31 -27 -70.5 -47.5t-81.5 -32t-81 -11.5zM421 82q26 0 51.5 5.5t50.5 17.5q-13 44 -34 79.5t-45 52.5q-25 18 -47 18q-20 0 -40 -16t-34 -39q-12 -22 -12 -43q0 -36 29 -55.5
t81 -19.5zM479 395q-22 17 -38.5 32.5t-27.5 29.5q5 5 21 22t43 45q6 -6 21.5 -21t40.5 -39q-19 -30 -60 -69zM329 381q-22 18 -39 33.5t-28 27.5q14 13 30 29.5t35 38.5q6 -7 21 -22t40 -38q-9 -15 -24 -32t-35 -37z" />
    <glyph glyph-name="uniFED9" unicode="&#x643;" horiz-adv-x="558" arabic-form="isolated" 
d="M226 0q-64 0 -136 6q-73 6 -73 14q0 17 5 42t11 35q26 -6 62 -11t75 -7.5t75 -2.5q53 0 107 5t108 15q-10 59 -20 118.5t-21 118.5q-6 32 -12.5 70.5t-11.5 76t-8 67.5t-3 45q0 33 15 52t51 27q5 -19 15.5 -54l19.5 -65l-26 -22q20 -182 29.5 -287.5t9.5 -134.5
q0 -28 -10 -49.5t-26 -41.5q-55 -8 -114.5 -12.5t-121.5 -4.5zM180 194q-13 0 -18 6t-5 14q26 2 50.5 11t41.5 21q8 5 13.5 10.5t8.5 11.5q-47 1 -73 9.5t-26 38.5q0 16 12 34t30 31t36 13q26 0 34 -28l-16 -7q-5 5 -12 5q-8 0 -19 -8t-20.5 -19t-11.5 -22q17 -8 43 -10.5
t39 -11.5q9 -6 9 -19t-19 -32t-46 -33.5t-51 -14.5z" />
    <glyph glyph-name="uniFEDD" unicode="&#x644;" horiz-adv-x="595" arabic-form="isolated" 
d="M249 -262q-85 0 -133 49t-48 139q0 20 1.5 37t5.5 38.5t12 54.5l37 -9q-11 -46 -11 -71q0 -73 36.5 -114t101.5 -41q48 0 99 16.5t90 45.5q20 14 34 30t22 33l-26 161q-8 51 -17.5 109.5t-18.5 116.5t-16.5 110t-12 91t-4.5 59q0 34 15.5 52.5t49.5 25.5q7 -22 17 -56
t19 -63l-23 -20l34 -312q6 -50 10.5 -93t7 -78.5t2.5 -65.5q0 -61 -38.5 -117.5t-106.5 -91.5q-34 -18 -68.5 -27t-70.5 -9z" />
    <glyph glyph-name="uniFEE1" unicode="&#x645;" horiz-adv-x="489" arabic-form="isolated" 
d="M87 -305q0 38 -2.5 85t-7.5 102q-4 50 -6.5 81t-2.5 42q0 19 9.5 43t22.5 50q22 7 44 12t45 9t48.5 6.5t55.5 4t65 1.5l-21 31q-31 52 -58 78t-50 26q-24 0 -45.5 -17t-47.5 -57l-32 16q26 68 64 104.5t80 36.5q23 0 44.5 -15.5t46.5 -49.5q32 -45 58.5 -74.5t52.5 -49.5
l-38 -102q-53 0 -97 -2.5t-81 -7t-68.5 -12t-59.5 -16.5q5 -30 10 -59l10 -58q10 -49 17 -91.5t11 -79.5q-14 -10 -30.5 -19.5t-36.5 -17.5z" />
    <glyph glyph-name="uniFEE5" unicode="&#x646;" horiz-adv-x="586" arabic-form="isolated" 
d="M249 -262q-85 0 -133 49t-48 139q0 20 1.5 37t5.5 38.5t12 54.5l37 -9q-11 -46 -11 -71q0 -73 36.5 -114t101.5 -41q50 0 100.5 16.5t90.5 45t56 63.5q-33 71 -49 119t-16 72q0 26 14.5 46.5t50.5 42.5q2 -11 5 -29.5t7.5 -43t10.5 -56.5q7 -36 10.5 -64.5t3.5 -49.5
q0 -61 -39 -117.5t-107 -91.5q-34 -18 -69 -27t-71 -9zM276 233q-44 33 -72 65q26 26 43 44t27 29q16 -17 32.5 -33.5t33.5 -31.5q-11 -16 -27.5 -34.5t-36.5 -38.5z" />
    <glyph glyph-name="uniFEED" unicode="&#x648;" horiz-adv-x="468" arabic-form="isolated" 
d="M193 -203q-21 0 -51.5 9.5t-60 24.5t-47.5 30l14 33q27 -10 57.5 -14.5t64.5 -4.5q75 0 128.5 44.5t81.5 129.5l-1 8q-29 -28 -64 -42.5t-70 -14.5q-58 0 -91.5 35.5t-33.5 93.5q0 51 20.5 100.5t53.5 80.5q33 30 67 30q39 0 74.5 -34.5t58.5 -98.5q12 -32 17.5 -63.5
t5.5 -62.5q0 -47 -14.5 -94t-40 -86.5t-59.5 -65.5q-52 -38 -110 -38zM269 82q25 0 45.5 4t55.5 18q-12 47 -34 83t-48 53q-21 15 -42 15t-41 -15.5t-34 -39.5q-13 -24 -13 -43q0 -36 29 -55.5t82 -19.5z" />
    <glyph glyph-name="uniFEEF" unicode="&#x649;" horiz-adv-x="618" arabic-form="isolated" 
d="M249 -262q-85 0 -133 49t-48 139q0 20 1.5 37t5.5 38.5t12 54.5l37 -9q-11 -46 -11 -71q0 -73 36.5 -114t101.5 -41q36 0 78 8.5t83 24t72 35.5q24 15 40 31t23 32q-13 2 -25.5 4t-26.5 3q-76 6 -113 18.5t-57 40.5q-19 28 -19 73q0 31 14.5 68t40.5 73.5t58 64.5
q49 43 88 43q34 0 51 -23t26 -64l-36 -10q-7 10 -13.5 12.5t-18.5 2.5q-17 0 -41.5 -12.5t-49 -34t-45.5 -47.5q-31 -42 -38 -77q14 -13 42 -22.5t68 -15.5q36 -5 61 -11.5t40 -16.5q17 -12 23.5 -28.5t6.5 -39.5q0 -30 -25.5 -64t-68 -65t-95.5 -53q-78 -33 -145 -33z" />
    <glyph glyph-name="uniFEF1" unicode="&#x64a;" horiz-adv-x="618" arabic-form="isolated" 
d="M249 -262q-85 0 -133 49t-48 139q0 20 1.5 37t5.5 38.5t12 54.5l37 -9q-11 -46 -11 -71q0 -73 36.5 -114t101.5 -41q36 0 78 8.5t83 24t72 35.5q24 15 40 31t23 32q-13 2 -25.5 4t-26.5 3q-76 6 -113 18.5t-57 40.5q-19 28 -19 73q0 31 14.5 68t40.5 73.5t58 64.5
q49 43 88 43q34 0 51 -23t26 -64l-36 -10q-7 10 -13.5 12.5t-18.5 2.5q-17 0 -41.5 -12.5t-49 -34t-45.5 -47.5q-31 -42 -38 -77q14 -13 42 -22.5t68 -15.5q36 -5 61 -11.5t40 -16.5q17 -12 23.5 -28.5t6.5 -39.5q0 -30 -25.5 -64t-68 -65t-95.5 -53q-78 -33 -145 -33z
M355 -420q-22 17 -38.5 32.5t-27.5 29.5q5 5 21 22t43 45q6 -6 21.5 -21t40.5 -39q-19 -30 -60 -69zM205 -434q-22 18 -39 33.5t-28 27.5q14 13 30 29.5t35 38.5q6 -7 21 -22t40 -38q-9 -15 -24 -32t-35 -37z" />
    <glyph glyph-name="uniFB50" unicode="&#x671;" horiz-adv-x="238" arabic-form="isolated" 
d="M104 0q-1 88 -3.5 168t-6 153t-7.5 138t-10 123q-2 27 3.5 45t21 28.5t41.5 15.5q4 -19 13.5 -51.5t21.5 -67.5l-27 -23q4 -74 5.5 -152t0 -168t-6.5 -201zM26 734l-14 10q17 25 30 38t29 13q5 0 17 -6q22 32 39.5 44t38.5 12q17 0 30 -16.5t13 -41.5q0 -13 -8 -34
q-17 -12 -30.5 -15.5t-31.5 -3.5q-19 0 -36 5t-43 18q-19 -8 -34 -23zM139 774q21 0 29 1.5t24 8.5q-11 23 -33 23q-11 0 -22 -5t-31 -22q21 -6 33 -6z" />
    <glyph glyph-name="uniFBDD" unicode="&#x677;" horiz-adv-x="905" arabic-form="isolated" 
d="M536 193l-14 42q13 5 26.5 10t29.5 11t36 13q-6 4 -11 7.5t-8 6.5q-13 14 -21.5 30t-8.5 33q0 28 13.5 58t36.5 55.5t52 37.5q11 5 22 7.5t23 2.5q35 0 57 -18.5t22 -55.5q0 -11 -3.5 -23.5t-8.5 -21.5q-10 3 -16 5.5t-14 6.5q4 6 5.5 12t2.5 13q-6 6 -19 9t-22 3
q-29 0 -60.5 -18t-52.5 -46q8 -19 20 -32.5t29 -23.5q11 -6 27.5 -12t30.5 -10q6 2 13 4t14 3q24 7 49.5 11.5t47.5 8.5q12 2 21.5 3t16.5 2q8 -8 11.5 -17t3.5 -18q0 -22 -14 -34t-33 -14q-36 -4 -75 -8t-66 -9q-18 -3 -38.5 -7t-49.5 -10t-75 -17zM193 -203
q-21 0 -51.5 9.5t-60 24.5t-47.5 30l14 33q27 -10 57.5 -14.5t64.5 -4.5q75 0 128.5 44.5t81.5 129.5l-1 8q-29 -28 -64 -42.5t-70 -14.5q-58 0 -91.5 35.5t-33.5 93.5q0 51 20.5 100.5t53.5 80.5q33 30 67 30q39 0 74.5 -34.5t58.5 -98.5q12 -32 17.5 -63.5t5.5 -62.5
q0 -47 -14.5 -94t-40 -86.5t-59.5 -65.5q-52 -38 -110 -38zM269 82q25 0 45.5 4t55.5 18q-12 47 -34 83t-48 53q-21 15 -42 15t-41 -15.5t-34 -39.5q-13 -24 -13 -43q0 -36 29 -55.5t82 -19.5zM284 616q23 0 36.5 -16.5t13.5 -36.5t-11 -48t-29.5 -57.5t-41.5 -53.5l-21 18
q13 14 23 34t16 40.5t6 34.5q0 11 -12 18t-33 13q3 24 18.5 39t34.5 15z" />
    <glyph glyph-name="uniFB66" unicode="&#x679;" horiz-adv-x="772" arabic-form="isolated" 
d="M314 0q-118 0 -181 42.5t-63 127.5q0 64 13 110h36q-1 -4 -2 -20.5t-1 -28.5q0 -58 22 -89.5t70 -48.5q24 -8 55.5 -12.5t71.5 -4.5q93 0 182 19t158 52q-5 21 -14 48.5t-22 61.5q-10 26 -14.5 42.5t-4.5 24.5q0 21 17 43.5t49 40.5q11 -49 19 -89.5t13 -72t5 -55.5
q0 -17 -9 -42.5t-26 -59.5q-44 -28 -101 -48t-125.5 -30.5t-147.5 -10.5zM381 329q-67 0 -122 32l6 25q9 -2 20.5 -4t25.5 -4l18 20q-10 34 -17 59.5t-7 35.5q0 14 11 23t30 10q3 -11 6 -19.5t5 -14.5l-8 -6l3 -65q17 14 32.5 25.5t29.5 11.5t29.5 -9.5t26.5 -22.5t11 -23
q0 -21 -13.5 -38t-36 -26.5t-50.5 -9.5zM383 373q23 0 40 4.5t36 11.5q-16 14 -28 18t-23 4q-14 0 -32 -9t-39 -27z" />
    <glyph glyph-name="uniFB5E" unicode="&#x67a;" horiz-adv-x="772" arabic-form="isolated" 
d="M314 0q-118 0 -181 42.5t-63 127.5q0 64 13 110h36q-1 -4 -2 -20.5t-1 -28.5q0 -58 22 -89.5t70 -48.5q24 -8 55.5 -12.5t71.5 -4.5q93 0 182 19t158 52q-5 21 -14 48.5t-22 61.5q-10 26 -14.5 42.5t-4.5 24.5q0 21 17 43.5t49 40.5q11 -49 19 -89.5t13 -72t5 -55.5
q0 -17 -9 -42.5t-26 -59.5q-44 -28 -101 -48t-125.5 -30.5t-147.5 -10.5zM354 436q-21 17 -35.5 30.5t-24.5 24.5q10 9 25 24t34 36q5 -6 19 -19.5t36 -34.5q-10 -14 -23 -29t-31 -32zM366 311q-19 14 -33.5 28t-25.5 27q8 8 22.5 23.5t35.5 37.5q6 -7 19.5 -20.5
t35.5 -34.5q-9 -13 -22.5 -28.5t-31.5 -32.5z" />
    <glyph glyph-name="uniFB52" unicode="&#x67b;" horiz-adv-x="772" arabic-form="isolated" 
d="M314 0q-118 0 -181 42.5t-63 127.5q0 64 13 110h36q-1 -4 -2 -20.5t-1 -28.5q0 -58 22 -89.5t70 -48.5q24 -8 55.5 -12.5t71.5 -4.5q93 0 182 19t158 52q-5 21 -14 48.5t-22 61.5q-10 26 -14.5 42.5t-4.5 24.5q0 21 17 43.5t49 40.5q11 -49 19 -89.5t13 -72t5 -55.5
q0 -17 -9 -42.5t-26 -59.5q-44 -28 -101 -48t-125.5 -30.5t-147.5 -10.5zM379 -156q-21 17 -35.5 30.5t-24.5 24.5q10 9 25 24t34 36q5 -6 19 -19.5t36 -34.5q-10 -14 -23 -29t-31 -32zM391 -281q-19 14 -33.5 28t-25.5 27q8 8 22.5 23.5t35.5 37.5q6 -7 19.5 -20.5
t35.5 -34.5q-9 -13 -22.5 -28.5t-31.5 -32.5z" />
    <glyph glyph-name="uniFB56" unicode="&#x67e;" horiz-adv-x="772" arabic-form="isolated" 
d="M314 0q-118 0 -181 42.5t-63 127.5q0 64 13 110h36q-1 -4 -2 -20.5t-1 -28.5q0 -58 22 -89.5t70 -48.5q24 -8 55.5 -12.5t71.5 -4.5q93 0 182 19t158 52q-5 21 -14 48.5t-22 61.5q-10 26 -14.5 42.5t-4.5 24.5q0 21 17 43.5t49 40.5q11 -49 19 -89.5t13 -72t5 -55.5
q0 -17 -9 -42.5t-26 -59.5q-44 -28 -101 -48t-125.5 -30.5t-147.5 -10.5zM319 -174q-19 16 -34 29.5t-26 25.5q12 11 26.5 26t31.5 35q9 -10 23 -23t33 -31q-9 -14 -22.5 -29.5t-31.5 -32.5zM462 -161q-17 14 -32 27.5t-28 27.5q8 8 23 23.5t36 37.5l21.5 -21.5l33.5 -33.5
q-9 -13 -22.5 -28.5t-31.5 -32.5zM393 -242q-33 22 -57 49q14 13 27.5 27t26.5 28q24 -30 54 -55q-16 -17 -28.5 -29t-22.5 -20z" />
    <glyph glyph-name="uniFB62" unicode="&#x67f;" horiz-adv-x="772" arabic-form="isolated" 
d="M314 0q-118 0 -181 42.5t-63 127.5q0 64 13 110h36q-1 -4 -2 -20.5t-1 -28.5q0 -58 22 -89.5t70 -48.5q24 -8 55.5 -12.5t71.5 -4.5q93 0 182 19t158 52q-5 21 -14 48.5t-22 61.5q-10 26 -14.5 42.5t-4.5 24.5q0 21 17 43.5t49 40.5q11 -49 19 -89.5t13 -72t5 -55.5
q0 -17 -9 -42.5t-26 -59.5q-44 -28 -101 -48t-125.5 -30.5t-147.5 -10.5zM405 415q-30 23 -48 44q12 11 24 23.5t23 24.5q5 -6 16.5 -17t27.5 -27q-8 -11 -18.5 -23t-24.5 -25zM314 315q-30 23 -48 44l24 24t23 24l17 -17t27 -26q-10 -13 -20.5 -25.5t-22.5 -23.5zM304 415
q-30 23 -48 44l20 20t27 28l17 -17l27 -27q-16 -24 -43 -48zM415 315q-29 22 -48 44q12 12 23.5 24t22.5 24q11 -11 22 -21.5t22 -21.5q-7 -11 -17.5 -23.5t-24.5 -25.5z" />
    <glyph glyph-name="uniFB5A" unicode="&#x680;" horiz-adv-x="772" arabic-form="isolated" 
d="M314 0q-118 0 -181 42.5t-63 127.5q0 64 13 110h36q-1 -4 -2 -20.5t-1 -28.5q0 -58 22 -89.5t70 -48.5q24 -8 55.5 -12.5t71.5 -4.5q93 0 182 19t158 52q-5 21 -14 48.5t-22 61.5q-10 26 -14.5 42.5t-4.5 24.5q0 21 17 43.5t49 40.5q11 -49 19 -89.5t13 -72t5 -55.5
q0 -17 -9 -42.5t-26 -59.5q-44 -28 -101 -48t-125.5 -30.5t-147.5 -10.5zM432 -137q-30 23 -48 44q12 11 24 23.5t23 24.5q5 -6 16.5 -17t27.5 -27q-8 -11 -18.5 -23t-24.5 -25zM341 -237q-30 23 -48 44l24 24t23 24l17 -17t27 -26q-10 -13 -20.5 -25.5t-22.5 -23.5z
M331 -137q-30 23 -48 44l20 20t27 28l17 -17l27 -27q-16 -24 -43 -48zM442 -237q-29 22 -48 44q12 12 23.5 24t22.5 24q11 -11 22 -21.5t22 -21.5q-7 -11 -17.5 -23.5t-24.5 -25.5z" />
    <glyph glyph-name="uniFB76" unicode="&#x683;" horiz-adv-x="636" arabic-form="isolated" 
d="M360 -287q-124 0 -191.5 63t-67.5 182q0 62 30.5 123.5t84.5 108.5q27 23 56.5 41t60.5 30q-12 5 -37.5 13.5t-53.5 15.5t-50 7q-30 0 -51.5 -7.5t-57.5 -30.5q-6 5 -10.5 15.5t-4.5 22.5q0 38 33.5 61t87.5 23q43 0 84.5 -11t83.5 -24t85 -24t89 -11l66 2l-29 -77
q-9 -1 -18.5 -2t-19 -1.5t-18.5 -0.5q-41 -3 -88 -15.5t-91.5 -32.5t-81.5 -46q-55 -38 -85 -84t-30 -96q0 -52 25 -88.5t75.5 -55.5t126.5 -19q62 0 123 7.5t121 20.5l12 -33q-49 -27 -93.5 -44t-85.5 -25t-80 -8zM443 -65q-22 17 -38.5 32.5t-27.5 29.5q5 5 21 22t43 45
q6 -6 21.5 -21t40.5 -39q-19 -30 -60 -69zM293 -79q-22 18 -39 33.5t-28 27.5q14 13 30 29.5t35 38.5q6 -7 21 -22t40 -38q-9 -15 -24 -32t-35 -37z" />
    <glyph glyph-name="uniFB72" unicode="&#x684;" horiz-adv-x="636" arabic-form="isolated" 
d="M360 -287q-124 0 -191.5 63t-67.5 182q0 62 30.5 123.5t84.5 108.5q27 23 56.5 41t60.5 30q-12 5 -37.5 13.5t-53.5 15.5t-50 7q-30 0 -51.5 -7.5t-57.5 -30.5q-6 5 -10.5 15.5t-4.5 22.5q0 38 33.5 61t87.5 23q43 0 84.5 -11t83.5 -24t85 -24t89 -11l66 2l-29 -77
q-9 -1 -18.5 -2t-19 -1.5t-18.5 -0.5q-41 -3 -88 -15.5t-91.5 -32.5t-81.5 -46q-55 -38 -85 -84t-30 -96q0 -52 25 -88.5t75.5 -55.5t126.5 -19q62 0 123 7.5t121 20.5l12 -33q-49 -27 -93.5 -44t-85.5 -25t-80 -8zM367 -5q-21 17 -35.5 30.5t-24.5 24.5q10 9 25 24t34 36
q5 -6 19 -19.5t36 -34.5q-10 -14 -23 -29t-31 -32zM379 -130q-19 14 -33.5 28t-25.5 27q8 8 22.5 23.5t35.5 37.5q6 -7 19.5 -20.5t35.5 -34.5q-9 -13 -22.5 -28.5t-31.5 -32.5z" />
    <glyph glyph-name="uniFB7A" unicode="&#x686;" horiz-adv-x="636" arabic-form="isolated" 
d="M360 -287q-124 0 -191.5 63t-67.5 182q0 62 30.5 123.5t84.5 108.5q27 23 56.5 41t60.5 30q-12 5 -37.5 13.5t-53.5 15.5t-50 7q-30 0 -51.5 -7.5t-57.5 -30.5q-6 5 -10.5 15.5t-4.5 22.5q0 38 33.5 61t87.5 23q43 0 84.5 -11t83.5 -24t85 -24t89 -11l66 2l-29 -77
q-9 -1 -18.5 -2t-19 -1.5t-18.5 -0.5q-41 -3 -88 -15.5t-91.5 -32.5t-81.5 -46q-55 -38 -85 -84t-30 -96q0 -52 25 -88.5t75.5 -55.5t126.5 -19q62 0 123 7.5t121 20.5l12 -33q-49 -27 -93.5 -44t-85.5 -25t-80 -8zM304 -49q-19 16 -34 29.5t-26 25.5q12 11 26.5 26t31.5 35
q9 -10 23 -23t33 -31q-9 -14 -22.5 -29.5t-31.5 -32.5zM447 -36q-17 14 -32 27.5t-28 27.5q8 8 23 23.5t36 37.5l21.5 -21.5l33.5 -33.5q-9 -13 -22.5 -28.5t-31.5 -32.5zM378 -117q-33 22 -57 49q14 13 27.5 27t26.5 28q24 -30 54 -55q-16 -17 -28.5 -29t-22.5 -20z" />
    <glyph glyph-name="uniFB7E" unicode="&#x687;" horiz-adv-x="636" arabic-form="isolated" 
d="M360 -287q-124 0 -191.5 63t-67.5 182q0 62 30.5 123.5t84.5 108.5q27 23 56.5 41t60.5 30q-12 5 -37.5 13.5t-53.5 15.5t-50 7q-30 0 -51.5 -7.5t-57.5 -30.5q-6 5 -10.5 15.5t-4.5 22.5q0 38 33.5 61t87.5 23q43 0 84.5 -11t83.5 -24t85 -24t89 -11l66 2l-29 -77
q-9 -1 -18.5 -2t-19 -1.5t-18.5 -0.5q-41 -3 -88 -15.5t-91.5 -32.5t-81.5 -46q-55 -38 -85 -84t-30 -96q0 -52 25 -88.5t75.5 -55.5t126.5 -19q62 0 123 7.5t121 20.5l12 -33q-49 -27 -93.5 -44t-85.5 -25t-80 -8zM425 -4q-30 23 -48 44q12 11 24 23.5t23 24.5
q5 -6 16.5 -17t27.5 -27q-8 -11 -18.5 -23t-24.5 -25zM334 -104q-30 23 -48 44l24 24t23 24l17 -17t27 -26q-10 -13 -20.5 -25.5t-22.5 -23.5zM324 -4q-30 23 -48 44l20 20t27 28l17 -17l27 -27q-16 -24 -43 -48zM435 -104q-29 22 -48 44q12 12 23.5 24t22.5 24
q11 -11 22 -21.5t22 -21.5q-7 -11 -17.5 -23.5t-24.5 -25.5z" />
    <glyph glyph-name="uniFB88" unicode="&#x688;" horiz-adv-x="414" arabic-form="isolated" 
d="M156 0q-122 0 -122 63q0 17 4.5 30t13.5 23q25 -20 57 -30t79 -10q67 0 136 21q-8 22 -18.5 45t-23.5 46q-27 48 -40 73t-17 40t-4 31q0 25 13 41.5t39 24.5q9 -22 20.5 -49t23.5 -53t20 -45q15 -32 25 -59.5t10 -50.5q0 -10 -4 -26t-12 -35.5t-20 -40.5q-36 -19 -81 -29
t-99 -10zM236 458q-67 0 -122 32l6 25q9 -2 20.5 -4t25.5 -4l18 20q-10 34 -17 59.5t-7 35.5q0 14 11 23t30 10q3 -11 6 -19.5t5 -14.5l-8 -6l3 -65q17 14 32.5 25.5t29.5 11.5t29.5 -9.5t26.5 -22.5t11 -23q0 -21 -13.5 -38t-36 -26.5t-50.5 -9.5zM238 502q23 0 40 4.5
t36 11.5q-16 14 -28 18t-23 4q-14 0 -32 -9t-39 -27z" />
    <glyph glyph-name="uniFB84" unicode="&#x68c;" horiz-adv-x="414" arabic-form="isolated" 
d="M156 0q-122 0 -122 63q0 17 4.5 30t13.5 23q25 -20 57 -30t79 -10q67 0 136 21q-8 22 -18.5 45t-23.5 46q-27 48 -40 73t-17 40t-4 31q0 25 13 41.5t39 24.5q9 -22 20.5 -49t23.5 -53t20 -45q15 -32 25 -59.5t10 -50.5q0 -10 -4 -26t-12 -35.5t-20 -40.5q-36 -19 -81 -29
t-99 -10zM291 457q-22 17 -38.5 32.5t-27.5 29.5q5 5 21 22t43 45q6 -6 21.5 -21t40.5 -39q-19 -30 -60 -69zM141 443q-22 18 -39 33.5t-28 27.5q14 13 30 29.5t35 38.5q6 -7 21 -22t40 -38q-9 -15 -24 -32t-35 -37z" />
    <glyph glyph-name="uniFB82" unicode="&#x68d;" horiz-adv-x="414" arabic-form="isolated" 
d="M156 0q-122 0 -122 63q0 17 4.5 30t13.5 23q25 -20 57 -30t79 -10q67 0 136 21q-8 22 -18.5 45t-23.5 46q-27 48 -40 73t-17 40t-4 31q0 25 13 41.5t39 24.5q9 -22 20.5 -49t23.5 -53t20 -45q15 -32 25 -59.5t10 -50.5q0 -10 -4 -26t-12 -35.5t-20 -40.5q-36 -19 -81 -29
t-99 -10zM290 -173q-22 17 -38.5 32.5t-27.5 29.5q5 5 21 22t43 45q6 -6 21.5 -21t40.5 -39q-19 -30 -60 -69zM140 -187q-22 18 -39 33.5t-28 27.5q14 13 30 29.5t35 38.5q6 -7 21 -22t40 -38q-9 -15 -24 -32t-35 -37z" />
    <glyph glyph-name="uniFB86" unicode="&#x68e;" horiz-adv-x="414" arabic-form="isolated" 
d="M156 0q-122 0 -122 63q0 17 4.5 30t13.5 23q25 -20 57 -30t79 -10q67 0 136 21q-8 22 -18.5 45t-23.5 46q-27 48 -40 73t-17 40t-4 31q0 25 13 41.5t39 24.5q9 -22 20.5 -49t23.5 -53t20 -45q15 -32 25 -59.5t10 -50.5q0 -10 -4 -26t-12 -35.5t-20 -40.5q-36 -19 -81 -29
t-99 -10zM152 443q-19 15 -34 29t-26 26q12 11 26.5 26.5t31.5 34.5q5 -6 19 -19.5t36 -35.5q-9 -13 -22 -28.5t-31 -32.5zM294 456q-17 14 -31.5 27.5t-27.5 27.5q9 8 24 23.5t34 37.5q14 -14 27.5 -28t27.5 -27q-10 -14 -23 -29.5t-31 -31.5zM223 538q-13 8 -27.5 20.5
t-28.5 28.5q15 15 28.5 29t24.5 27q10 -13 23.5 -26.5t31.5 -29.5q-14 -16 -27.5 -28.5t-24.5 -20.5z" />
    <glyph glyph-name="uniFB8C" unicode="&#x691;" horiz-adv-x="386" arabic-form="isolated" 
d="M111 -204q-16 0 -40.5 9t-49.5 22t-41 25l13 33q28 -5 51.5 -8t43.5 -3q75 0 128.5 45t81.5 130q-7 16 -14.5 31.5t-16.5 31.5q-34 61 -50 97.5t-16 61.5q0 26 15 41.5t43 28.5q4 -16 12 -39t17 -46.5t16 -43.5q13 -35 22 -69t9 -62q0 -78 -29.5 -144.5t-80.5 -103.5
q-52 -37 -114 -37zM221 397q-67 0 -122 32l6 25q9 -2 20.5 -4t25.5 -4l18 20q-10 34 -17 59.5t-7 35.5q0 14 11 23t30 10q3 -11 6 -19.5t5 -14.5l-8 -6l3 -65q17 14 32.5 25.5t29.5 11.5t29.5 -9.5t26.5 -22.5t11 -23q0 -21 -13.5 -38t-36 -26.5t-50.5 -9.5zM223 441
q23 0 40 4.5t36 11.5q-16 14 -28 18t-23 4q-14 0 -32 -9t-39 -27z" />
    <glyph glyph-name="uniFB8A" unicode="&#x698;" horiz-adv-x="386" arabic-form="isolated" 
d="M111 -204q-16 0 -40.5 9t-49.5 22t-41 25l13 33q28 -5 51.5 -8t43.5 -3q75 0 128.5 45t81.5 130q-7 16 -14.5 31.5t-16.5 31.5q-34 61 -50 97.5t-16 61.5q0 26 15 41.5t43 28.5q4 -16 12 -39t17 -46.5t16 -43.5q13 -35 22 -69t9 -62q0 -78 -29.5 -144.5t-80.5 -103.5
q-52 -37 -114 -37zM137 382q-19 15 -34 29t-26 26q12 11 26.5 26.5t31.5 34.5q5 -6 19 -19.5t36 -35.5q-9 -13 -22 -28.5t-31 -32.5zM279 395q-17 14 -31.5 27.5t-27.5 27.5q9 8 24 23.5t34 37.5q14 -14 27.5 -28t27.5 -27q-10 -14 -23 -29.5t-31 -31.5zM208 477
q-13 8 -27.5 20.5t-28.5 28.5q15 15 28.5 29t24.5 27q10 -13 23.5 -26.5t31.5 -29.5q-14 -16 -27.5 -28.5t-24.5 -20.5z" />
    <glyph glyph-name="uniFB6A" unicode="&#x6a4;" horiz-adv-x="848" arabic-form="isolated" 
d="M320 0q-126 0 -189 42.5t-63 127.5q0 32 3.5 59t10.5 51h36q-2 -12 -3 -24.5t-1 -24.5q0 -61 22.5 -91.5t72.5 -47.5q26 -7 59 -11.5t74 -4.5q50 0 107 5.5t113.5 15t105.5 22.5t82 28q-3 20 -6 39.5t-8 38.5q-33 -27 -68.5 -41t-73.5 -14q-43 0 -71 33t-28 84
q0 50 16.5 93.5t42.5 69.5q29 31 65 31q50 0 90.5 -36t64.5 -104q11 -34 17 -71.5t6 -78.5v-27t-7 -35t-28 -40q-30 -23 -78 -40t-108 -28t-125.5 -16t-130.5 -5zM618 246q24 0 50.5 6.5t54.5 18.5q-19 61 -49.5 93t-69.5 32q-30 0 -50.5 -27.5t-20.5 -61.5
q0 -32 20.5 -46.5t64.5 -14.5zM551 522q-19 15 -34 29t-26 26q12 11 26.5 26.5t31.5 34.5q5 -6 19 -19.5t36 -35.5q-9 -13 -22 -28.5t-31 -32.5zM693 535q-17 14 -31.5 27.5t-27.5 27.5q9 8 24 23.5t34 37.5q14 -14 27.5 -28t27.5 -27q-10 -14 -23 -29.5t-31 -31.5zM622 617
q-13 8 -27.5 20.5t-28.5 28.5q15 15 28.5 29t24.5 27q10 -13 23.5 -26.5t31.5 -29.5q-14 -16 -27.5 -28.5t-24.5 -20.5z" />
    <glyph glyph-name="uniFB6E" unicode="&#x6a6;" horiz-adv-x="848" arabic-form="isolated" 
d="M320 0q-126 0 -189 42.5t-63 127.5q0 32 3.5 59t10.5 51h36q-2 -12 -3 -24.5t-1 -24.5q0 -61 22.5 -91.5t72.5 -47.5q26 -7 59 -11.5t74 -4.5q50 0 107 5.5t113.5 15t105.5 22.5t82 28q-3 20 -6 39.5t-8 38.5q-33 -27 -68.5 -41t-73.5 -14q-43 0 -71 33t-28 84
q0 50 16.5 93.5t42.5 69.5q29 31 65 31q50 0 90.5 -36t64.5 -104q11 -34 17 -71.5t6 -78.5v-27t-7 -35t-28 -40q-30 -23 -78 -40t-108 -28t-125.5 -16t-130.5 -5zM618 246q24 0 50.5 6.5t54.5 18.5q-19 61 -49.5 93t-69.5 32q-30 0 -50.5 -27.5t-20.5 -61.5
q0 -32 20.5 -46.5t64.5 -14.5zM659 623q-30 23 -48 44q12 11 24 23.5t23 24.5q5 -6 16.5 -17t27.5 -27q-8 -11 -18.5 -23t-24.5 -25zM568 523q-30 23 -48 44l24 24t23 24l17 -17t27 -26q-10 -13 -20.5 -25.5t-22.5 -23.5zM558 623q-30 23 -48 44l20 20t27 28l17 -17l27 -27
q-16 -24 -43 -48zM669 523q-29 22 -48 44q12 12 23.5 24t22.5 24q11 -11 22 -21.5t22 -21.5q-7 -11 -17.5 -23.5t-24.5 -25.5z" />
    <glyph glyph-name="uniFB8E" unicode="&#x6a9;" horiz-adv-x="722" arabic-form="isolated" 
d="M308 0q-87 0 -140.5 17t-78.5 51q-21 30 -21 73q0 11 1.5 21.5t4.5 21.5t7 21h36q-2 -9 -3 -19.5t-1 -21.5q0 -23 11.5 -40t34.5 -27t62.5 -15.5t94.5 -5.5q58 0 107 5t93.5 18t86.5 36q-12 34 -34.5 65t-58.5 59q-23 19 -52.5 37t-64.5 35q-13 -3 -25 -3q-27 0 -44 18.5
t-17 46.5q0 11 3 26.5t7.5 30.5t8.5 26t7 12q68 35 116 59t86 41.5t74 32.5t79 33q8 -6 12 -13.5t4 -18.5q0 -24 -10.5 -40t-32.5 -24q-68 -28 -126 -53t-106 -46t-86 -39q78 -19 148 -62.5t111 -95.5q41 -53 41 -98q0 -80 -83.5 -122t-251.5 -42z" />
    <glyph glyph-name="uniFBD3" unicode="&#x6ad;" horiz-adv-x="558" arabic-form="isolated" 
d="M226 0q-64 0 -136 6q-73 6 -73 14q0 17 5 42t11 35q26 -6 62 -11t75 -7.5t75 -2.5q53 0 107 5t108 15q-10 59 -20 118.5t-21 118.5q-6 32 -12.5 70.5t-11.5 76t-8 67.5t-3 45q0 33 15 52t51 27q5 -19 15.5 -54l19.5 -65l-26 -22q20 -182 29.5 -287.5t9.5 -134.5
q0 -28 -10 -49.5t-26 -41.5q-55 -8 -114.5 -12.5t-121.5 -4.5zM180 194q-13 0 -18 6t-5 14q26 2 50.5 11t41.5 21q8 5 13.5 10.5t8.5 11.5q-47 1 -73 9.5t-26 38.5q0 16 12 34t30 31t36 13q26 0 34 -28l-16 -7q-5 5 -12 5q-8 0 -19 -8t-20.5 -19t-11.5 -22q17 -8 43 -10.5
t39 -11.5q9 -6 9 -19t-19 -32t-46 -33.5t-51 -14.5zM286 420q-16 14 -26.5 24t-17.5 17l23 23l20 21l40 -40q-10 -13 -19.5 -24.5t-19.5 -20.5zM181 412q-13 9 -23.5 19.5l-20.5 20.5q4 3 14.5 14t28.5 30l40 -39q-9 -13 -18.5 -24.5t-20.5 -20.5zM229 493q-11 6 -20 15.5
t-19 21.5q12 11 22 20.5t18 19.5l39 -40q-15 -16 -25.5 -25.5t-14.5 -11.5z" />
    <glyph glyph-name="uniFB92" unicode="&#x6af;" horiz-adv-x="722" arabic-form="isolated" 
d="M308 0q-87 0 -140.5 17t-78.5 51q-21 30 -21 73q0 11 1.5 21.5t4.5 21.5t7 21h36q-2 -9 -3 -19.5t-1 -21.5q0 -23 11.5 -40t34.5 -27t62.5 -15.5t94.5 -5.5q58 0 107 5t93.5 18t86.5 36q-12 34 -34.5 65t-58.5 59q-23 19 -52.5 37t-64.5 35q-13 -3 -25 -3q-27 0 -44 18.5
t-17 46.5q0 11 3 26.5t7.5 30.5t8.5 26t7 12q68 35 116 59t86 41.5t74 32.5t79 33q8 -6 12 -13.5t4 -18.5q0 -24 -10.5 -40t-32.5 -24q-68 -28 -126 -53t-106 -46t-86 -39q78 -19 148 -62.5t111 -95.5q41 -53 41 -98q0 -80 -83.5 -122t-251.5 -42zM287 512q-4 17 -6 28.5
t-2 18.5q0 5 2 5q28 14 56 28.5t56 28.5q70 32 139 65l138 66q16 -12 16 -30q-2 -15 -7 -23.5t-21 -15.5q-15 -7 -32 -14.5t-44 -19.5q-52 -23 -127.5 -58t-167.5 -79z" />
    <glyph glyph-name="uniFB9A" unicode="&#x6b1;" horiz-adv-x="722" arabic-form="isolated" 
d="M308 0q-87 0 -140.5 17t-78.5 51q-21 30 -21 73q0 11 1.5 21.5t4.5 21.5t7 21h36q-2 -9 -3 -19.5t-1 -21.5q0 -23 11.5 -40t34.5 -27t62.5 -15.5t94.5 -5.5q58 0 107 5t93.5 18t86.5 36q-12 34 -34.5 65t-58.5 59q-23 19 -52.5 37t-64.5 35q-13 -3 -25 -3q-27 0 -44 18.5
t-17 46.5q0 11 3 26.5t7.5 30.5t8.5 26t7 12q68 35 116 59t86 41.5t74 32.5t79 33q8 -6 12 -13.5t4 -18.5q0 -24 -10.5 -40t-32.5 -24q-68 -28 -126 -53t-106 -46t-86 -39q78 -19 148 -62.5t111 -95.5q41 -53 41 -98q0 -80 -83.5 -122t-251.5 -42zM287 512q-4 17 -6 28.5
t-2 18.5q0 5 2 5q28 14 56 28.5t56 28.5q70 32 139 65l138 66q16 -12 16 -30q-2 -15 -7 -23.5t-21 -15.5q-15 -7 -32 -14.5t-44 -19.5q-52 -23 -127.5 -58t-167.5 -79zM432 678q-16 13 -27 23.5t-19 19.5l17.5 17.5t27.5 30.5l43 -43q-12 -16 -22.5 -28t-19.5 -20zM346 634
q-16 13 -27 24t-18 19q11 11 22 22.5t22 24.5l43 -42q-21 -30 -42 -48z" />
    <glyph glyph-name="uniFB96" unicode="&#x6b3;" horiz-adv-x="722" arabic-form="isolated" 
d="M308 0q-87 0 -140.5 17t-78.5 51q-21 30 -21 73q0 11 1.5 21.5t4.5 21.5t7 21h36q-2 -9 -3 -19.5t-1 -21.5q0 -23 11.5 -40t34.5 -27t62.5 -15.5t94.5 -5.5q58 0 107 5t93.5 18t86.5 36q-12 34 -34.5 65t-58.5 59q-23 19 -52.5 37t-64.5 35q-13 -3 -25 -3q-27 0 -44 18.5
t-17 46.5q0 11 3 26.5t7.5 30.5t8.5 26t7 12q68 35 116 59t86 41.5t74 32.5t79 33q8 -6 12 -13.5t4 -18.5q0 -24 -10.5 -40t-32.5 -24q-68 -28 -126 -53t-106 -46t-86 -39q78 -19 148 -62.5t111 -95.5q41 -53 41 -98q0 -80 -83.5 -122t-251.5 -42zM287 512q-4 17 -6 28.5
t-2 18.5q0 5 2 5q28 14 56 28.5t56 28.5q70 32 139 65l138 66q16 -12 16 -30q-2 -15 -7 -23.5t-21 -15.5q-15 -7 -32 -14.5t-44 -19.5q-52 -23 -127.5 -58t-167.5 -79zM451 -156q-21 17 -35.5 30.5t-24.5 24.5q10 9 25 24t34 36q5 -6 19 -19.5t36 -34.5q-10 -14 -23 -29
t-31 -32zM463 -281q-19 14 -33.5 28t-25.5 27q8 8 22.5 23.5t35.5 37.5q6 -7 19.5 -20.5t35.5 -34.5q-9 -13 -22.5 -28.5t-31.5 -32.5z" />
    <glyph glyph-name="uniFB9E" unicode="&#x6ba;" horiz-adv-x="586" arabic-form="isolated" 
d="M249 -262q-85 0 -133 49t-48 139q0 20 1.5 37t5.5 38.5t12 54.5l37 -9q-11 -46 -11 -71q0 -73 36.5 -114t101.5 -41q50 0 100.5 16.5t90.5 45t56 63.5q-33 71 -49 119t-16 72q0 26 14.5 46.5t50.5 42.5q2 -11 5 -29.5t7.5 -43t10.5 -56.5q7 -36 10.5 -64.5t3.5 -49.5
q0 -61 -39 -117.5t-107 -91.5q-34 -18 -69 -27t-71 -9z" />
    <glyph glyph-name="uniFBA0" unicode="&#x6bb;" horiz-adv-x="586" arabic-form="isolated" 
d="M249 -262q-85 0 -133 49t-48 139q0 20 1.5 37t5.5 38.5t12 54.5l37 -9q-11 -46 -11 -71q0 -73 36.5 -114t101.5 -41q50 0 100.5 16.5t90.5 45t56 63.5q-33 71 -49 119t-16 72q0 26 14.5 46.5t50.5 42.5q2 -11 5 -29.5t7.5 -43t10.5 -56.5q7 -36 10.5 -64.5t3.5 -49.5
q0 -61 -39 -117.5t-107 -91.5q-34 -18 -69 -27t-71 -9zM294 232q-67 0 -122 32l6 25q9 -2 20.5 -4t25.5 -4l18 20q-10 34 -17 59.5t-7 35.5q0 14 11 23t30 10q3 -11 6 -19.5t5 -14.5l-8 -6l3 -65q17 14 32.5 25.5t29.5 11.5t29.5 -9.5t26.5 -22.5t11 -23q0 -21 -13.5 -38
t-36 -26.5t-50.5 -9.5zM296 276q23 0 40 4.5t36 11.5q-16 14 -28 18t-23 4q-14 0 -32 -9t-39 -27z" />
    <glyph glyph-name="uniFBAA" unicode="&#x6be;" horiz-adv-x="631" arabic-form="isolated" 
d="M529 -18q-65 8 -120.5 23.5t-101.5 38.5q-74 -44 -156 -44q-14 0 -34 5.5t-45 17t-55 27.5l9 34q21 -4 49 -6t62 -2q26 0 51 3.5t50 10.5q-62 52 -62 117q0 31 11.5 63.5t31.5 59t45 38.5l23 65q83 -23 150.5 -71.5t104.5 -113.5q38 -65 38 -132q0 -48 -51 -134zM312 125
q26 20 38.5 46.5t12.5 59.5q0 29 -18.5 53.5t-40.5 24.5q-16 0 -34.5 -13t-34.5 -36q-8 -11 -13.5 -24.5t-10.5 -27.5q22 -25 47.5 -45.5t53.5 -37.5zM526 55q0 44 -16 90t-44 88.5t-66 74.5q22 -37 22 -80q0 -75 -52 -133q38 -15 77 -25t79 -15z" />
    <glyph glyph-name="uniFBA4" unicode="&#x6c0;" horiz-adv-x="408" arabic-form="isolated" 
d="M190 0q-55 0 -88.5 33t-33.5 93q0 47 23.5 94t75.5 96q-16 9 -20.5 21t-4.5 23q0 16 7.5 30t18.5 18q45 -16 88 -53t72 -88q29 -50 29 -91q0 -15 -6.5 -37t-17 -45t-22 -41t-22.5 -25q-21 -14 -45.5 -21t-53.5 -7zM201 80q27 0 59 14.5t48 29.5q-10 50 -38.5 92.5
t-74.5 77.5q-37 -34 -59 -72t-22 -67q0 -35 23 -55t64 -20zM122 436l-3 39l40 22q-37 6 -37 40q0 19 11 37t28 30t35 12q39 0 39 -37q0 -14 -7 -27l-19 5l1 4q0 5 -4 9t-9 4q-16 0 -28.5 -11.5t-18.5 -26.5q17 -20 48 -20q9 0 21 1.5t28 4.5l-2 -38q-41 -10 -67.5 -21
t-55.5 -27z" />
    <glyph glyph-name="uniFBA6" unicode="&#x6c1;" horiz-adv-x="408" arabic-form="isolated" 
d="M190 0q-55 0 -88.5 33t-33.5 93q0 47 23.5 94t75.5 96q-16 9 -20.5 21t-4.5 23q0 16 7.5 30t18.5 18q45 -16 88 -53t72 -88q29 -50 29 -91q0 -15 -6.5 -37t-17 -45t-22 -41t-22.5 -25q-21 -14 -45.5 -21t-53.5 -7zM201 80q27 0 59 14.5t48 29.5q-10 50 -38.5 92.5
t-74.5 77.5q-37 -34 -59 -72t-22 -67q0 -35 23 -55t64 -20z" />
    <glyph glyph-name="uniFBE0" unicode="&#x6c5;" horiz-adv-x="468" arabic-form="isolated" 
d="M178 -237q-21 0 -52.5 10t-60.5 24.5t-45 29.5l14 32q27 -9 57 -13.5t64 -4.5q42 0 77.5 18.5t64.5 47.5t50 66.5t33 75.5l-1 8q-25 -23 -57.5 -40t-76.5 -17q-58 0 -91.5 36t-33.5 93q0 40 12.5 78t31.5 67q20 30 45.5 48t51.5 18q23 0 43.5 -11.5t38.5 -31.5
q8 -10 16 -21t15 -24q14 -26 24 -55t14 -59q3 -15 4 -29t1 -28q0 -33 -8 -69.5t-24 -71.5q-7 -17 -16.5 -34t-20.5 -33q-22 -32 -48 -57t-57 -39q-29 -14 -65 -14zM269 82q29 0 52.5 5t48.5 18q-8 33 -21.5 60.5t-30.5 47.5t-35.5 31t-36.5 11q-22 0 -42.5 -16.5t-33 -39
t-12.5 -42.5q0 -37 29 -56t82 -19zM304 -102q-46 18 -65 24.5t-36 6.5q-9 0 -21 -3.5t-26 -9.5l-16 25q26 20 37.5 25.5t26.5 5.5q11 0 25.5 -3.5t33.5 -11.5q20 -8 37 -12.5t29 -6.5z" />
    <glyph glyph-name="uniFBD9" unicode="&#x6c6;" horiz-adv-x="468" arabic-form="isolated" 
d="M193 -203q-21 0 -51.5 9.5t-60 24.5t-47.5 30l14 33q27 -10 57.5 -14.5t64.5 -4.5q75 0 128.5 44.5t81.5 129.5l-1 8q-29 -28 -64 -42.5t-70 -14.5q-58 0 -91.5 35.5t-33.5 93.5q0 51 20.5 100.5t53.5 80.5q33 30 67 30q39 0 74.5 -34.5t58.5 -98.5q12 -32 17.5 -63.5
t5.5 -62.5q0 -47 -14.5 -94t-40 -86.5t-59.5 -65.5q-52 -38 -110 -38zM269 82q25 0 45.5 4t55.5 18q-12 47 -34 83t-48 53q-21 15 -42 15t-41 -15.5t-34 -39.5q-13 -24 -13 -43q0 -36 29 -55.5t82 -19.5zM231 395q-19 41 -39 81t-47 77l16 5q5 2 10.5 2.5t9.5 0.5
q17 0 32 -17t28 -44q8 -13 14 -26t11 -26q4 21 13.5 47.5t20 48.5t17.5 31q9 -1 16 -8.5t7 -22.5q0 -7 -15 -36q-11 -22 -21 -46t-18 -50q-20 -12 -55 -17z" />
    <glyph glyph-name="uniFBD7" unicode="&#x6c7;" horiz-adv-x="468" arabic-form="isolated" 
d="M193 -203q-21 0 -51.5 9.5t-60 24.5t-47.5 30l14 33q27 -10 57.5 -14.5t64.5 -4.5q75 0 128.5 44.5t81.5 129.5l-1 8q-29 -28 -64 -42.5t-70 -14.5q-58 0 -91.5 35.5t-33.5 93.5q0 51 20.5 100.5t53.5 80.5q33 30 67 30q39 0 74.5 -34.5t58.5 -98.5q12 -32 17.5 -63.5
t5.5 -62.5q0 -47 -14.5 -94t-40 -86.5t-59.5 -65.5q-52 -38 -110 -38zM269 82q25 0 45.5 4t55.5 18q-12 47 -34 83t-48 53q-21 15 -42 15t-41 -15.5t-34 -39.5q-13 -24 -13 -43q0 -36 29 -55.5t82 -19.5zM284 616q23 0 36.5 -16.5t13.5 -36.5t-11 -48t-29.5 -57.5
t-41.5 -53.5l-21 18q13 14 23 34t16 40.5t6 34.5q0 11 -12 18t-33 13q3 24 18.5 39t34.5 15z" />
    <glyph glyph-name="uniFBDB" unicode="&#x6c8;" horiz-adv-x="468" arabic-form="isolated" 
d="M193 -203q-21 0 -51.5 9.5t-60 24.5t-47.5 30l14 33q27 -10 57.5 -14.5t64.5 -4.5q75 0 128.5 44.5t81.5 129.5l-1 8q-29 -28 -64 -42.5t-70 -14.5q-58 0 -91.5 35.5t-33.5 93.5q0 51 20.5 100.5t53.5 80.5q33 30 67 30q39 0 74.5 -34.5t58.5 -98.5q12 -32 17.5 -63.5
t5.5 -62.5q0 -47 -14.5 -94t-40 -86.5t-59.5 -65.5q-52 -38 -110 -38zM269 82q25 0 45.5 4t55.5 18q-12 47 -34 83t-48 53q-21 15 -42 15t-41 -15.5t-34 -39.5q-13 -24 -13 -43q0 -36 29 -55.5t82 -19.5zM257 537l-6 2q0 41 -4 79.5t-13 72.5q-3 14 -3 22q0 20 10 35.5
t26 21.5q8 -38 11 -62.5t3.5 -43.5t0.5 -42q0 -50 -25 -85z" />
    <glyph glyph-name="uniFBE2" unicode="&#x6c9;" horiz-adv-x="468" arabic-form="isolated" 
d="M193 -203q-21 0 -51.5 9.5t-60 24.5t-47.5 30l14 33q27 -10 57.5 -14.5t64.5 -4.5q75 0 128.5 44.5t81.5 129.5l-1 8q-29 -28 -64 -42.5t-70 -14.5q-58 0 -91.5 35.5t-33.5 93.5q0 51 20.5 100.5t53.5 80.5q33 30 67 30q39 0 74.5 -34.5t58.5 -98.5q12 -32 17.5 -63.5
t5.5 -62.5q0 -47 -14.5 -94t-40 -86.5t-59.5 -65.5q-52 -38 -110 -38zM269 82q25 0 45.5 4t55.5 18q-12 47 -34 83t-48 53q-21 15 -42 15t-41 -15.5t-34 -39.5q-13 -24 -13 -43q0 -36 29 -55.5t82 -19.5zM203 390q-8 1 -15 8t-7 21q0 5 8.5 22t20.5 42.5t22 53.5
q10 6 22 10.5t26 6.5q21 -46 40.5 -82t38.5 -62q-7 -2 -16.5 -4t-16.5 -2q-16 0 -26.5 12t-21.5 29q-4 8 -11.5 23.5t-17.5 37.5q-3 -18 -11 -41t-17.5 -43t-17.5 -32z" />
    <glyph glyph-name="uniFBDE" unicode="&#x6cb;" horiz-adv-x="468" arabic-form="isolated" 
d="M193 -203q-21 0 -51.5 9.5t-60 24.5t-47.5 30l14 33q27 -10 57.5 -14.5t64.5 -4.5q75 0 128.5 44.5t81.5 129.5l-1 8q-29 -28 -64 -42.5t-70 -14.5q-58 0 -91.5 35.5t-33.5 93.5q0 51 20.5 100.5t53.5 80.5q33 30 67 30q39 0 74.5 -34.5t58.5 -98.5q12 -32 17.5 -63.5
t5.5 -62.5q0 -47 -14.5 -94t-40 -86.5t-59.5 -65.5q-52 -38 -110 -38zM269 82q25 0 45.5 4t55.5 18q-12 47 -34 83t-48 53q-21 15 -42 15t-41 -15.5t-34 -39.5q-13 -24 -13 -43q0 -36 29 -55.5t82 -19.5zM188 383q-19 15 -34 29t-26 26q12 11 26.5 26.5t31.5 34.5
q5 -6 19 -19.5t36 -35.5q-9 -13 -22 -28.5t-31 -32.5zM330 396q-17 14 -31.5 27.5t-27.5 27.5q9 8 24 23.5t34 37.5q14 -14 27.5 -28t27.5 -27q-10 -14 -23 -29.5t-31 -31.5zM259 478q-13 8 -27.5 20.5t-28.5 28.5q15 15 28.5 29t24.5 27q10 -13 23.5 -26.5t31.5 -29.5
q-14 -16 -27.5 -28.5t-24.5 -20.5z" />
    <glyph glyph-name="uniFBFC" unicode="&#x6cc;" horiz-adv-x="618" arabic-form="isolated" 
d="M249 -262q-85 0 -133 49t-48 139q0 20 1.5 37t5.5 38.5t12 54.5l37 -9q-11 -46 -11 -71q0 -73 36.5 -114t101.5 -41q36 0 78 8.5t83 24t72 35.5q24 15 40 31t23 32q-13 2 -25.5 4t-26.5 3q-76 6 -113 18.5t-57 40.5q-19 28 -19 73q0 31 14.5 68t40.5 73.5t58 64.5
q49 43 88 43q34 0 51 -23t26 -64l-36 -10q-7 10 -13.5 12.5t-18.5 2.5q-17 0 -41.5 -12.5t-49 -34t-45.5 -47.5q-31 -42 -38 -77q14 -13 42 -22.5t68 -15.5q36 -5 61 -11.5t40 -16.5q17 -12 23.5 -28.5t6.5 -39.5q0 -30 -25.5 -64t-68 -65t-95.5 -53q-78 -33 -145 -33z" />
    <glyph glyph-name="uniFBE4" unicode="&#x6d0;" horiz-adv-x="618" arabic-form="isolated" 
d="M249 -262q-85 0 -133 49t-48 139q0 20 1.5 37t5.5 38.5t12 54.5l37 -9q-11 -46 -11 -71q0 -73 36.5 -114t101.5 -41q36 0 78 8.5t83 24t72 35.5q24 15 40 31t23 32q-13 2 -25.5 4t-26.5 3q-76 6 -113 18.5t-57 40.5q-19 28 -19 73q0 31 14.5 68t40.5 73.5t58 64.5
q49 43 88 43q34 0 51 -23t26 -64l-36 -10q-7 10 -13.5 12.5t-18.5 2.5q-17 0 -41.5 -12.5t-49 -34t-45.5 -47.5q-31 -42 -38 -77q14 -13 42 -22.5t68 -15.5q36 -5 61 -11.5t40 -16.5q17 -12 23.5 -28.5t6.5 -39.5q0 -30 -25.5 -64t-68 -65t-95.5 -53q-78 -33 -145 -33z
M275 -393q-21 17 -35.5 30.5t-24.5 24.5q10 9 25 24t34 36q5 -6 19 -19.5t36 -34.5q-10 -14 -23 -29t-31 -32zM287 -518q-19 14 -33.5 28t-25.5 27q8 8 22.5 23.5t35.5 37.5q6 -7 19.5 -20.5t35.5 -34.5q-9 -13 -22.5 -28.5t-31.5 -32.5z" />
    <glyph glyph-name="uniFBAE" unicode="&#x6d2;" horiz-adv-x="773" arabic-form="isolated" 
d="M406 0q-47 0 -101 3.5t-103.5 10t-85.5 15.5q-48 12 -48 23t3.5 28t8.5 35t10.5 32t10.5 19q15 16 36 30t46 26q7 3 29 10.5t59 20.5q35 11 51 26.5t26 34.5l31 -17q-15 -44 -35 -66.5t-52 -32.5q-34 -10 -57 -17.5t-40 -15.5q-21 -9 -39 -19.5t-42 -27.5
q56 -22 128.5 -32t176.5 -10q51 0 107.5 5.5t112 16t102.5 24.5q14 -15 14 -33q0 -13 -8.5 -24t-26.5 -20q-20 -10 -56 -18.5t-80 -14.5t-90.5 -9t-87.5 -3z" />
    <glyph glyph-name="uniFBB0" unicode="&#x6d3;" horiz-adv-x="773" arabic-form="isolated" 
d="M406 0q-47 0 -101 3.5t-103.5 10t-85.5 15.5q-48 12 -48 23t3.5 28t8.5 35t10.5 32t10.5 19q15 16 36 30t46 26q7 3 29 10.5t59 20.5q35 11 51 26.5t26 34.5l31 -17q-15 -44 -35 -66.5t-52 -32.5q-34 -10 -57 -17.5t-40 -15.5q-21 -9 -39 -19.5t-42 -27.5
q56 -22 128.5 -32t176.5 -10q51 0 107.5 5.5t112 16t102.5 24.5q14 -15 14 -33q0 -13 -8.5 -24t-26.5 -20q-20 -10 -56 -18.5t-80 -14.5t-90.5 -9t-87.5 -3zM172 345l-3 39l40 22q-37 6 -37 40q0 19 11 37t28 30t35 12q39 0 39 -37q0 -14 -7 -27l-19 5l1 4q0 5 -4 9t-9 4
q-16 0 -28.5 -11.5t-18.5 -26.5q17 -20 48 -20q9 0 21 1.5t28 4.5l-2 -38q-41 -10 -67.5 -21t-55.5 -27z" />
    <glyph glyph-name="uniFEE9" unicode="&#x647;" horiz-adv-x="408" arabic-form="isolated" 
d="M190 0q-55 0 -88.5 33t-33.5 93q0 47 23.5 94t75.5 96q-16 9 -20.5 21t-4.5 23q0 16 7.5 30t18.5 18q45 -16 88 -53t72 -88q29 -50 29 -91q0 -15 -6.5 -37t-17 -45t-22 -41t-22.5 -25q-21 -14 -45.5 -21t-53.5 -7zM201 80q27 0 59 14.5t48 29.5q-10 50 -38.5 92.5
t-74.5 77.5q-37 -34 -59 -72t-22 -67q0 -35 23 -55t64 -20z" />
    <glyph glyph-name="uniFB51" unicode="&#x671;" horiz-adv-x="253" arabic-form="final" 
d="M262 0q-39 0 -70 10.5t-50 30t-22 46.5q-3 29 -6.5 63t-7.5 77t-8.5 98.5t-9.5 127t-12 162.5q14 14 31 28.5t37 27.5q3 -78 3.5 -154t2 -160.5t5.5 -187.5l3 -67q23 -13 49.5 -19.5t54.5 -6.5q8 0 8 -8v-60q0 -8 -8 -8zM24 736l-14 10q17 25 30 38t29 13q5 0 17 -6
q22 32 39.5 44t38.5 12q17 0 30 -16.5t13 -41.5q0 -13 -8 -34q-17 -12 -30.5 -15.5t-31.5 -3.5q-19 0 -36 5t-43 18q-19 -8 -34 -23zM137 776q21 0 29 1.5t24 8.5q-11 23 -33 23q-11 0 -22 -5t-31 -22q21 -6 33 -6z" />
    <glyph glyph-name="uniFB53" unicode="&#x67b;" horiz-adv-x="817" arabic-form="final" 
d="M314 0q-118 0 -181 42.5t-63 127.5q0 64 13 110h36q-1 -4 -2 -20.5t-1 -28.5q0 -58 22 -89.5t70 -48.5q24 -8 55.5 -12.5t71.5 -4.5q42 0 88.5 5t89.5 13.5t75 18t45 18.5q17 13 25.5 27.5t24.5 42.5q5 8 12.5 11.5t18.5 3.5q16 0 24 -7q-13 -33 -23.5 -56t-18.5 -35
q34 -22 64 -32t67 -10q8 0 8 -8v-60q0 -8 -8 -8q-50 0 -93 18t-78 53q-61 -33 -149.5 -52t-192.5 -19zM409 -156q-21 17 -35.5 30.5t-24.5 24.5q10 9 25 24t34 36q5 -6 19 -19.5t36 -34.5q-10 -14 -23 -29t-31 -32zM421 -281q-19 14 -33.5 28t-25.5 27q8 8 22.5 23.5
t35.5 37.5q6 -7 19.5 -20.5t35.5 -34.5q-9 -13 -22.5 -28.5t-31.5 -32.5z" />
    <glyph glyph-name="uniFB54" unicode="&#x67b;" horiz-adv-x="275" arabic-form="initial" 
d="M0 0q-8 0 -8 8v60q0 8 8 8q46 0 93.5 10.5t83.5 26.5q-7 23 -16 50.5t-20 59.5q-10 26 -14.5 42.5t-4.5 24.5q0 22 17.5 45t47.5 39q2 -14 8 -42.5t15 -72.5q8 -33 11.5 -58.5t3.5 -43.5q0 -15 -9.5 -42.5t-26.5 -59.5q-91 -55 -189 -55zM141 -156q-21 17 -35.5 30.5
t-24.5 24.5q10 9 25 24t34 36q5 -6 19 -19.5t36 -34.5q-10 -14 -23 -29t-31 -32zM153 -281q-19 14 -33.5 28t-25.5 27q8 8 22.5 23.5t35.5 37.5q6 -7 19.5 -20.5t35.5 -34.5q-9 -13 -22.5 -28.5t-31.5 -32.5z" />
    <glyph glyph-name="uniFB55" unicode="&#x67b;" horiz-adv-x="292" arabic-form="medial" 
d="M0 0q-8 0 -8 8v60q0 8 8 8q73 0 104 28q9 8 23 32t41 75q5 8 13 12.5t18 4.5q12 0 25 -8q-11 -26 -23 -53t-26 -53q35 -21 63.5 -29.5t62.5 -8.5q8 0 8 -8v-60q0 -8 -8 -8q-93 0 -158 59q-4 -6 -8 -11.5t-9 -10.5q-10 -13 -47.5 -25t-78.5 -12zM161 -156
q-21 17 -35.5 30.5t-24.5 24.5q10 9 25 24t34 36q5 -6 19 -19.5t36 -34.5q-10 -14 -23 -29t-31 -32zM173 -281q-19 14 -33.5 28t-25.5 27q8 8 22.5 23.5t35.5 37.5q6 -7 19.5 -20.5t35.5 -34.5q-9 -13 -22.5 -28.5t-31.5 -32.5z" />
    <glyph glyph-name="uniFB57" unicode="&#x67e;" horiz-adv-x="817" arabic-form="final" 
d="M314 0q-118 0 -181 42.5t-63 127.5q0 64 13 110h36q-1 -4 -2 -20.5t-1 -28.5q0 -58 22 -89.5t70 -48.5q24 -8 55.5 -12.5t71.5 -4.5q42 0 88.5 5t89.5 13.5t75 18t45 18.5q17 13 25.5 27.5t24.5 42.5q5 8 12.5 11.5t18.5 3.5q16 0 24 -7q-13 -33 -23.5 -56t-18.5 -35
q34 -22 64 -32t67 -10q8 0 8 -8v-60q0 -8 -8 -8q-50 0 -93 18t-78 53q-61 -33 -149.5 -52t-192.5 -19zM349 -174q-19 16 -34 29.5t-26 25.5q12 11 26.5 26t31.5 35q9 -10 23 -23t33 -31q-9 -14 -22.5 -29.5t-31.5 -32.5zM492 -161q-17 14 -32 27.5t-28 27.5q8 8 23 23.5
t36 37.5l21.5 -21.5l33.5 -33.5q-9 -13 -22.5 -28.5t-31.5 -32.5zM423 -242q-33 22 -57 49q14 13 27.5 27t26.5 28q24 -30 54 -55q-16 -17 -28.5 -29t-22.5 -20z" />
    <glyph glyph-name="uniFB58" unicode="&#x67e;" horiz-adv-x="343" arabic-form="initial" 
d="M0 0q-8 0 -8 8v60q0 8 8 8q49 0 96.5 4.5t86.5 13t62 19.5q-5 20 -14 47.5t-23 62.5q-9 26 -14 42.5t-5 24.5q0 22 18 45t48 39q13 -58 21 -95.5t12 -64.5t4 -57q0 -17 -8.5 -42.5t-25.5 -59.5q-27 -16 -69.5 -28.5t-91.5 -19.5t-97 -7zM108 -174q-19 16 -34 29.5
t-26 25.5q12 11 26.5 26t31.5 35q9 -10 23 -23t33 -31q-9 -14 -22.5 -29.5t-31.5 -32.5zM251 -161q-17 14 -32 27.5t-28 27.5q8 8 23 23.5t36 37.5l21.5 -21.5l33.5 -33.5q-9 -13 -22.5 -28.5t-31.5 -32.5zM182 -242q-33 22 -57 49q14 13 27.5 27t26.5 28q24 -30 54 -55
q-16 -17 -28.5 -29t-22.5 -20z" />
    <glyph glyph-name="uniFB59" unicode="&#x67e;" horiz-adv-x="360" arabic-form="medial" 
d="M0 0q-8 0 -8 8v60q0 8 8 8q62 0 105 5.5t61 18.5q11 7 26 31.5t44 79.5q5 8 12.5 12.5t18.5 4.5q12 0 25 -8q-6 -15 -16.5 -38.5t-19.5 -43.5t-13 -24q34 -21 63 -29.5t63 -8.5q8 0 8 -8v-60q0 -8 -8 -8q-93 0 -158 58l-16 -21q-7 -7 -38.5 -16t-74 -15t-82.5 -6z
M131 -174q-19 16 -34 29.5t-26 25.5q12 11 26.5 26t31.5 35q9 -10 23 -23t33 -31q-9 -14 -22.5 -29.5t-31.5 -32.5zM274 -161q-17 14 -32 27.5t-28 27.5q8 8 23 23.5t36 37.5l21.5 -21.5l33.5 -33.5q-9 -13 -22.5 -28.5t-31.5 -32.5zM205 -242q-33 22 -57 49q14 13 27.5 27
t26.5 28q24 -30 54 -55q-16 -17 -28.5 -29t-22.5 -20z" />
    <glyph glyph-name="uniFB5B" unicode="&#x680;" horiz-adv-x="817" arabic-form="final" 
d="M314 0q-118 0 -181 42.5t-63 127.5q0 64 13 110h36q-1 -4 -2 -20.5t-1 -28.5q0 -58 22 -89.5t70 -48.5q24 -8 55.5 -12.5t71.5 -4.5q42 0 88.5 5t89.5 13.5t75 18t45 18.5q17 13 25.5 27.5t24.5 42.5q5 8 12.5 11.5t18.5 3.5q16 0 24 -7q-13 -33 -23.5 -56t-18.5 -35
q34 -22 64 -32t67 -10q8 0 8 -8v-60q0 -8 -8 -8q-50 0 -93 18t-78 53q-61 -33 -149.5 -52t-192.5 -19zM462 -137q-30 23 -48 44q12 11 24 23.5t23 24.5q5 -6 16.5 -17t27.5 -27q-8 -11 -18.5 -23t-24.5 -25zM371 -237q-30 23 -48 44l24 24t23 24l17 -17t27 -26
q-10 -13 -20.5 -25.5t-22.5 -23.5zM361 -137q-30 23 -48 44l20 20t27 28l17 -17l27 -27q-16 -24 -43 -48zM472 -237q-29 22 -48 44q12 12 23.5 24t22.5 24q11 -11 22 -21.5t22 -21.5q-7 -11 -17.5 -23.5t-24.5 -25.5z" />
    <glyph glyph-name="uniFB5C" unicode="&#x680;" horiz-adv-x="343" arabic-form="initial" 
d="M0 0q-8 0 -8 8v60q0 8 8 8q49 0 96.5 4.5t86.5 13t62 19.5q-5 20 -14 47.5t-23 62.5q-9 26 -14 42.5t-5 24.5q0 22 18 45t48 39q13 -58 21 -95.5t12 -64.5t4 -57q0 -17 -8.5 -42.5t-25.5 -59.5q-27 -16 -69.5 -28.5t-91.5 -19.5t-97 -7zM221 -137q-30 23 -48 44
q12 11 24 23.5t23 24.5q5 -6 16.5 -17t27.5 -27q-8 -11 -18.5 -23t-24.5 -25zM130 -237q-30 23 -48 44l24 24t23 24l17 -17t27 -26q-10 -13 -20.5 -25.5t-22.5 -23.5zM120 -137q-30 23 -48 44l20 20t27 28l17 -17l27 -27q-16 -24 -43 -48zM231 -237q-29 22 -48 44
q12 12 23.5 24t22.5 24q11 -11 22 -21.5t22 -21.5q-7 -11 -17.5 -23.5t-24.5 -25.5z" />
    <glyph glyph-name="uniFB5D" unicode="&#x680;" horiz-adv-x="360" arabic-form="medial" 
d="M0 0q-8 0 -8 8v60q0 8 8 8q62 0 105 5.5t61 18.5q11 7 26 31.5t44 79.5q5 8 12.5 12.5t18.5 4.5q12 0 25 -8q-6 -15 -16.5 -38.5t-19.5 -43.5t-13 -24q34 -21 63 -29.5t63 -8.5q8 0 8 -8v-60q0 -8 -8 -8q-93 0 -158 58l-16 -21q-7 -7 -38.5 -16t-74 -15t-82.5 -6z
M244 -137q-30 23 -48 44q12 11 24 23.5t23 24.5q5 -6 16.5 -17t27.5 -27q-8 -11 -18.5 -23t-24.5 -25zM153 -237q-30 23 -48 44l24 24t23 24l17 -17t27 -26q-10 -13 -20.5 -25.5t-22.5 -23.5zM143 -137q-30 23 -48 44l20 20t27 28l17 -17l27 -27q-16 -24 -43 -48zM254 -237
q-29 22 -48 44q12 12 23.5 24t22.5 24q11 -11 22 -21.5t22 -21.5q-7 -11 -17.5 -23.5t-24.5 -25.5z" />
    <glyph glyph-name="uniFB5F" unicode="&#x67a;" horiz-adv-x="817" arabic-form="final" 
d="M314 0q-118 0 -181 42.5t-63 127.5q0 64 13 110h36q-1 -4 -2 -20.5t-1 -28.5q0 -58 22 -89.5t70 -48.5q24 -8 55.5 -12.5t71.5 -4.5q42 0 88.5 5t89.5 13.5t75 18t45 18.5q17 13 25.5 27.5t24.5 42.5q5 8 12.5 11.5t18.5 3.5q16 0 24 -7q-13 -33 -23.5 -56t-18.5 -35
q34 -22 64 -32t67 -10q8 0 8 -8v-60q0 -8 -8 -8q-50 0 -93 18t-78 53q-61 -33 -149.5 -52t-192.5 -19zM364 436q-21 17 -35.5 30.5t-24.5 24.5q10 9 25 24t34 36q5 -6 19 -19.5t36 -34.5q-10 -14 -23 -29t-31 -32zM376 311q-19 14 -33.5 28t-25.5 27q8 8 22.5 23.5
t35.5 37.5q6 -7 19.5 -20.5t35.5 -34.5q-9 -13 -22.5 -28.5t-31.5 -32.5z" />
    <glyph glyph-name="uniFB60" unicode="&#x67a;" horiz-adv-x="343" arabic-form="initial" 
d="M0 0q-8 0 -8 8v60q0 8 8 8q49 0 96.5 4.5t86.5 13t62 19.5q-5 20 -14 47.5t-23 62.5q-9 26 -14 42.5t-5 24.5q0 22 18 45t48 39q13 -58 21 -95.5t12 -64.5t4 -57q0 -17 -8.5 -42.5t-25.5 -59.5q-27 -16 -69.5 -28.5t-91.5 -19.5t-97 -7zM184 546q-21 17 -35.5 30.5
t-24.5 24.5q10 9 25 24t34 36q5 -6 19 -19.5t36 -34.5q-10 -14 -23 -29t-31 -32zM196 421q-19 14 -33.5 28t-25.5 27q8 8 22.5 23.5t35.5 37.5q6 -7 19.5 -20.5t35.5 -34.5q-9 -13 -22.5 -28.5t-31.5 -32.5z" />
    <glyph glyph-name="uniFB61" unicode="&#x67a;" horiz-adv-x="360" arabic-form="medial" 
d="M0 0q-8 0 -8 8v60q0 8 8 8q62 0 105 5.5t61 18.5q11 7 26 31.5t44 79.5q5 8 12.5 12.5t18.5 4.5q12 0 25 -8q-6 -15 -16.5 -38.5t-19.5 -43.5t-13 -24q34 -21 63 -29.5t63 -8.5q8 0 8 -8v-60q0 -8 -8 -8q-93 0 -158 58l-16 -21q-7 -7 -38.5 -16t-74 -15t-82.5 -6z
M188 426q-21 17 -35.5 30.5t-24.5 24.5q10 9 25 24t34 36q5 -6 19 -19.5t36 -34.5q-10 -14 -23 -29t-31 -32zM200 301q-19 14 -33.5 28t-25.5 27q8 8 22.5 23.5t35.5 37.5q6 -7 19.5 -20.5t35.5 -34.5q-9 -13 -22.5 -28.5t-31.5 -32.5z" />
    <glyph glyph-name="uniFB63" unicode="&#x67f;" horiz-adv-x="817" arabic-form="final" 
d="M314 0q-118 0 -181 42.5t-63 127.5q0 64 13 110h36q-1 -4 -2 -20.5t-1 -28.5q0 -58 22 -89.5t70 -48.5q24 -8 55.5 -12.5t71.5 -4.5q42 0 88.5 5t89.5 13.5t75 18t45 18.5q17 13 25.5 27.5t24.5 42.5q5 8 12.5 11.5t18.5 3.5q16 0 24 -7q-13 -33 -23.5 -56t-18.5 -35
q34 -22 64 -32t67 -10q8 0 8 -8v-60q0 -8 -8 -8q-50 0 -93 18t-78 53q-61 -33 -149.5 -52t-192.5 -19zM415 415q-30 23 -48 44q12 11 24 23.5t23 24.5q5 -6 16.5 -17t27.5 -27q-8 -11 -18.5 -23t-24.5 -25zM324 315q-30 23 -48 44l24 24t23 24l17 -17t27 -26
q-10 -13 -20.5 -25.5t-22.5 -23.5zM314 415q-30 23 -48 44l20 20t27 28l17 -17l27 -27q-16 -24 -43 -48zM425 315q-29 22 -48 44q12 12 23.5 24t22.5 24q11 -11 22 -21.5t22 -21.5q-7 -11 -17.5 -23.5t-24.5 -25.5z" />
    <glyph glyph-name="uniFB64" unicode="&#x67f;" horiz-adv-x="343" arabic-form="initial" 
d="M0 0q-8 0 -8 8v60q0 8 8 8q49 0 96.5 4.5t86.5 13t62 19.5q-5 20 -14 47.5t-23 62.5q-9 26 -14 42.5t-5 24.5q0 22 18 45t48 39q13 -58 21 -95.5t12 -64.5t4 -57q0 -17 -8.5 -42.5t-25.5 -59.5q-27 -16 -69.5 -28.5t-91.5 -19.5t-97 -7zM235 525q-30 23 -48 44
q12 11 24 23.5t23 24.5q5 -6 16.5 -17t27.5 -27q-8 -11 -18.5 -23t-24.5 -25zM144 425q-30 23 -48 44l24 24t23 24l17 -17t27 -26q-10 -13 -20.5 -25.5t-22.5 -23.5zM134 525q-30 23 -48 44l20 20t27 28l17 -17l27 -27q-16 -24 -43 -48zM245 425q-29 22 -48 44
q12 12 23.5 24t22.5 24q11 -11 22 -21.5t22 -21.5q-7 -11 -17.5 -23.5t-24.5 -25.5z" />
    <glyph glyph-name="uniFB65" unicode="&#x67f;" horiz-adv-x="360" arabic-form="medial" 
d="M0 0q-8 0 -8 8v60q0 8 8 8q62 0 105 5.5t61 18.5q11 7 26 31.5t44 79.5q5 8 12.5 12.5t18.5 4.5q12 0 25 -8q-6 -15 -16.5 -38.5t-19.5 -43.5t-13 -24q34 -21 63 -29.5t63 -8.5q8 0 8 -8v-60q0 -8 -8 -8q-93 0 -158 58l-16 -21q-7 -7 -38.5 -16t-74 -15t-82.5 -6z
M239 405q-30 23 -48 44q12 11 24 23.5t23 24.5q5 -6 16.5 -17t27.5 -27q-8 -11 -18.5 -23t-24.5 -25zM148 305q-30 23 -48 44l24 24t23 24l17 -17t27 -26q-10 -13 -20.5 -25.5t-22.5 -23.5zM138 405q-30 23 -48 44l20 20t27 28l17 -17l27 -27q-16 -24 -43 -48zM249 305
q-29 22 -48 44q12 12 23.5 24t22.5 24q11 -11 22 -21.5t22 -21.5q-7 -11 -17.5 -23.5t-24.5 -25.5z" />
    <glyph glyph-name="uniFB67" unicode="&#x679;" horiz-adv-x="817" arabic-form="final" 
d="M314 0q-118 0 -181 42.5t-63 127.5q0 64 13 110h36q-1 -4 -2 -20.5t-1 -28.5q0 -58 22 -89.5t70 -48.5q24 -8 55.5 -12.5t71.5 -4.5q42 0 88.5 5t89.5 13.5t75 18t45 18.5q17 13 25.5 27.5t24.5 42.5q5 8 12.5 11.5t18.5 3.5q16 0 24 -7q-13 -33 -23.5 -56t-18.5 -35
q34 -22 64 -32t67 -10q8 0 8 -8v-60q0 -8 -8 -8q-50 0 -93 18t-78 53q-61 -33 -149.5 -52t-192.5 -19zM391 329q-67 0 -122 32l6 25q9 -2 20.5 -4t25.5 -4l18 20q-10 34 -17 59.5t-7 35.5q0 14 11 23t30 10q3 -11 6 -19.5t5 -14.5l-8 -6l3 -65q17 14 32.5 25.5t29.5 11.5
t29.5 -9.5t26.5 -22.5t11 -23q0 -21 -13.5 -38t-36 -26.5t-50.5 -9.5zM393 373q23 0 40 4.5t36 11.5q-16 14 -28 18t-23 4q-14 0 -32 -9t-39 -27z" />
    <glyph glyph-name="uniFBA2" unicode="&#x6bb;" horiz-adv-x="275" arabic-form="initial" 
d="M0 0q-8 0 -8 8v60q0 8 8 8q46 0 93.5 10.5t83.5 26.5q-7 23 -16 50.5t-20 59.5q-10 26 -14.5 42.5t-4.5 24.5q0 22 17.5 45t47.5 39q2 -14 8 -42.5t15 -72.5q8 -33 11.5 -58.5t3.5 -43.5q0 -15 -9.5 -42.5t-26.5 -59.5q-91 -55 -189 -55zM155 439q-67 0 -122 32l6 25
q9 -2 20.5 -4t25.5 -4l18 20q-10 34 -17 59.5t-7 35.5q0 14 11 23t30 10q3 -11 6 -19.5t5 -14.5l-8 -6l3 -65q17 14 32.5 25.5t29.5 11.5t29.5 -9.5t26.5 -22.5t11 -23q0 -21 -13.5 -38t-36 -26.5t-50.5 -9.5zM157 483q23 0 40 4.5t36 11.5q-16 14 -28 18t-23 4
q-14 0 -32 -9t-39 -27z" />
    <glyph glyph-name="uniFBA3" unicode="&#x6bb;" horiz-adv-x="360" arabic-form="medial" 
d="M0 0q-8 0 -8 8v60q0 8 8 8q62 0 105 5.5t61 18.5q11 7 26 31.5t44 79.5q5 8 12.5 12.5t18.5 4.5q12 0 25 -8q-6 -15 -16.5 -38.5t-19.5 -43.5t-13 -24q34 -21 63 -29.5t63 -8.5q8 0 8 -8v-60q0 -8 -8 -8q-93 0 -158 58l-16 -21q-7 -7 -38.5 -16t-74 -15t-82.5 -6z
M215 319q-67 0 -122 32l6 25q9 -2 20.5 -4t25.5 -4l18 20q-10 34 -17 59.5t-7 35.5q0 14 11 23t30 10q3 -11 6 -19.5t5 -14.5l-8 -6l3 -65q17 14 32.5 25.5t29.5 11.5t29.5 -9.5t26.5 -22.5t11 -23q0 -21 -13.5 -38t-36 -26.5t-50.5 -9.5zM217 363q23 0 40 4.5t36 11.5
q-16 14 -28 18t-23 4q-14 0 -32 -9t-39 -27z" />
    <glyph glyph-name="uniFB6B" unicode="&#x6a4;" horiz-adv-x="817" arabic-form="final" 
d="M320 0q-126 0 -189 42.5t-63 127.5q0 32 3.5 59t10.5 51h36q-2 -12 -3 -24.5t-1 -24.5q0 -61 22.5 -91.5t72.5 -47.5q26 -7 59 -11.5t74 -4.5q32 0 62.5 2t59.5 6t57 9q-40 42 -40 90q0 15 3 36.5t7 41t8 26.5q18 32 42.5 55.5t54 36t61.5 12.5q26 0 50.5 -26t39.5 -68
q15 -43 15 -86q0 -73 -58 -124q29 -5 60 -8t62 -3q8 0 8 -8v-60q0 -8 -8 -8q-125 0 -205 40q-33 -12 -79.5 -21t-102.5 -14t-119 -5zM611 119q72 27 112 62q-3 25 -15.5 53.5t-30.5 49.5q-18 22 -29 22q-19 0 -43 -16t-47 -41.5t-39 -56.5q20 -23 43 -41.5t49 -31.5z
M567 424q-19 15 -34 29t-26 26q12 11 26.5 26.5t31.5 34.5q5 -6 19 -19.5t36 -35.5q-9 -13 -22 -28.5t-31 -32.5zM709 437q-17 14 -31.5 27.5t-27.5 27.5q9 8 24 23.5t34 37.5q14 -14 27.5 -28t27.5 -27q-10 -14 -23 -29.5t-31 -31.5zM638 519q-13 8 -27.5 20.5t-28.5 28.5
q15 15 28.5 29t24.5 27q10 -13 23.5 -26.5t31.5 -29.5q-14 -16 -27.5 -28.5t-24.5 -20.5z" />
    <glyph glyph-name="uniFB6C" unicode="&#x6a4;" horiz-adv-x="420" arabic-form="initial" 
d="M1 0q-9 0 -9 9v58q0 9 9 9q108 0 182.5 13t137.5 41q-2 20 -5.5 39.5t-7.5 38.5q-31 -25 -68 -40t-74 -15q-44 0 -72 33.5t-28 83.5q0 51 17.5 96t44.5 71q14 13 30 20t32 7q52 0 92 -37.5t64 -105.5q11 -34 17 -70.5t6 -76.5q0 -11 -1.5 -29.5t-9 -38t-24.5 -34.5
q-23 -16 -70.5 -33t-114 -28t-148.5 -11zM189 229q50 0 106 25q-19 61 -50 93t-70 32q-30 0 -50.5 -27.5t-20.5 -61.5q0 -31 20.5 -46t64.5 -15zM121 505q-19 15 -34 29t-26 26q12 11 26.5 26.5t31.5 34.5q5 -6 19 -19.5t36 -35.5q-9 -13 -22 -28.5t-31 -32.5zM263 518
q-17 14 -31.5 27.5t-27.5 27.5q9 8 24 23.5t34 37.5q14 -14 27.5 -28t27.5 -27q-10 -14 -23 -29.5t-31 -31.5zM192 600q-13 8 -27.5 20.5t-28.5 28.5q15 15 28.5 29t24.5 27q10 -13 23.5 -26.5t31.5 -29.5q-14 -16 -27.5 -28.5t-24.5 -20.5z" />
    <glyph glyph-name="uniFB6D" unicode="&#x6a4;" horiz-adv-x="387" arabic-form="medial" 
d="M1 0q-9 0 -9 9v58q0 9 9 9q28 0 49 1t37 3q-37 41 -37 86q0 17 3 38.5t7 40t8 25.5q17 32 42 55t54.5 36t61.5 13q26 0 50 -25t39 -68q16 -42 16 -86q0 -63 -43 -114q16 -2 43 -3.5t64 -1.5q9 0 9 -8v-60q0 -8 -9 -8q-124 0 -205 32q-34 -17 -79.5 -24.5t-109.5 -7.5z
M190 103q57 21 102 61q-3 25 -16.5 55t-30.5 50q-18 20 -28 20q-19 0 -43 -15.5t-47.5 -41.5t-39.5 -57q21 -24 46.5 -42t56.5 -30zM136 415q-19 15 -34 29t-26 26q12 11 26.5 26.5t31.5 34.5q5 -6 19 -19.5t36 -35.5q-9 -13 -22 -28.5t-31 -32.5zM278 428
q-17 14 -31.5 27.5t-27.5 27.5q9 8 24 23.5t34 37.5q14 -14 27.5 -28t27.5 -27q-10 -14 -23 -29.5t-31 -31.5zM207 510q-13 8 -27.5 20.5t-28.5 28.5q15 15 28.5 29t24.5 27q10 -13 23.5 -26.5t31.5 -29.5q-14 -16 -27.5 -28.5t-24.5 -20.5z" />
    <glyph glyph-name="uniFB6F" unicode="&#x6a6;" horiz-adv-x="817" arabic-form="final" 
d="M320 0q-126 0 -189 42.5t-63 127.5q0 32 3.5 59t10.5 51h36q-2 -12 -3 -24.5t-1 -24.5q0 -61 22.5 -91.5t72.5 -47.5q26 -7 59 -11.5t74 -4.5q32 0 62.5 2t59.5 6t57 9q-40 42 -40 90q0 15 3 36.5t7 41t8 26.5q18 32 42.5 55.5t54 36t61.5 12.5q26 0 50.5 -26t39.5 -68
q15 -43 15 -86q0 -73 -58 -124q29 -5 60 -8t62 -3q8 0 8 -8v-60q0 -8 -8 -8q-125 0 -205 40q-33 -12 -79.5 -21t-102.5 -14t-119 -5zM611 119q72 27 112 62q-3 25 -15.5 53.5t-30.5 49.5q-18 22 -29 22q-19 0 -43 -16t-47 -41.5t-39 -56.5q20 -23 43 -41.5t49 -31.5z
M675 525q-30 23 -48 44q12 11 24 23.5t23 24.5q5 -6 16.5 -17t27.5 -27q-8 -11 -18.5 -23t-24.5 -25zM584 425q-30 23 -48 44l24 24t23 24l17 -17t27 -26q-10 -13 -20.5 -25.5t-22.5 -23.5zM574 525q-30 23 -48 44l20 20t27 28l17 -17l27 -27q-16 -24 -43 -48zM685 425
q-29 22 -48 44q12 12 23.5 24t22.5 24q11 -11 22 -21.5t22 -21.5q-7 -11 -17.5 -23.5t-24.5 -25.5z" />
    <glyph glyph-name="uniFB70" unicode="&#x6a6;" horiz-adv-x="420" arabic-form="initial" 
d="M1 0q-9 0 -9 9v58q0 9 9 9q108 0 182.5 13t137.5 41q-2 20 -5.5 39.5t-7.5 38.5q-31 -25 -68 -40t-74 -15q-44 0 -72 33.5t-28 83.5q0 51 17.5 96t44.5 71q14 13 30 20t32 7q52 0 92 -37.5t64 -105.5q11 -34 17 -70.5t6 -76.5q0 -11 -1.5 -29.5t-9 -38t-24.5 -34.5
q-23 -16 -70.5 -33t-114 -28t-148.5 -11zM189 229q50 0 106 25q-19 61 -50 93t-70 32q-30 0 -50.5 -27.5t-20.5 -61.5q0 -31 20.5 -46t64.5 -15zM229 606q-30 23 -48 44q12 11 24 23.5t23 24.5q5 -6 16.5 -17t27.5 -27q-8 -11 -18.5 -23t-24.5 -25zM138 506q-30 23 -48 44
l24 24t23 24l17 -17t27 -26q-10 -13 -20.5 -25.5t-22.5 -23.5zM128 606q-30 23 -48 44l20 20t27 28l17 -17l27 -27q-16 -24 -43 -48zM239 506q-29 22 -48 44q12 12 23.5 24t22.5 24q11 -11 22 -21.5t22 -21.5q-7 -11 -17.5 -23.5t-24.5 -25.5z" />
    <glyph glyph-name="uniFB71" unicode="&#x6a6;" horiz-adv-x="387" arabic-form="medial" 
d="M1 0q-9 0 -9 9v58q0 9 9 9q28 0 49 1t37 3q-37 41 -37 86q0 17 3 38.5t7 40t8 25.5q17 32 42 55t54.5 36t61.5 13q26 0 50 -25t39 -68q16 -42 16 -86q0 -63 -43 -114q16 -2 43 -3.5t64 -1.5q9 0 9 -8v-60q0 -8 -9 -8q-124 0 -205 32q-34 -17 -79.5 -24.5t-109.5 -7.5z
M190 103q57 21 102 61q-3 25 -16.5 55t-30.5 50q-18 20 -28 20q-19 0 -43 -15.5t-47.5 -41.5t-39.5 -57q21 -24 46.5 -42t56.5 -30zM244 516q-30 23 -48 44q12 11 24 23.5t23 24.5q5 -6 16.5 -17t27.5 -27q-8 -11 -18.5 -23t-24.5 -25zM153 416q-30 23 -48 44l24 24t23 24
l17 -17t27 -26q-10 -13 -20.5 -25.5t-22.5 -23.5zM143 516q-30 23 -48 44l20 20t27 28l17 -17l27 -27q-16 -24 -43 -48zM254 416q-29 22 -48 44q12 12 23.5 24t22.5 24q11 -11 22 -21.5t22 -21.5q-7 -11 -17.5 -23.5t-24.5 -25.5z" />
    <glyph glyph-name="uniFB73" unicode="&#x684;" horiz-adv-x="666" arabic-form="final" 
d="M321 -286q-67 0 -116.5 27t-77 75.5t-27.5 112.5q0 56 25.5 107.5t71.5 93.5q31 28 70.5 51t85.5 39q-42 19 -67.5 29.5t-42.5 16.5q-27 10 -51 10q-31 0 -52 -8t-57 -31q-7 8 -11 17.5t-4 21.5q0 38 33.5 60.5t87.5 22.5q29 0 63 -10.5t93 -36.5q52 -24 99 -36t87 -12
l66 2l-29 -77q-14 -1 -29 -2l-30 -2q-13 0 -25.5 -1t-26.5 -3q16 -35 27 -54t26.5 -28t41.5 -15q22 -4 52 -6t71 -2q8 0 8 -8v-60q0 -8 -8 -8q-89 0 -135 16.5t-75 53.5q-30 37 -48 104q-91 -21 -156.5 -59t-97.5 -88q-13 -20 -20 -42t-7 -45q0 -70 55 -108t155 -38
q86 0 212 36l14 -33q-44 -27 -87 -45.5t-84 -28t-80 -9.5zM327 -35q-21 17 -35.5 30.5t-24.5 24.5q10 9 25 24t34 36q5 -6 19 -19.5t36 -34.5q-10 -14 -23 -29t-31 -32zM339 -160q-19 14 -33.5 28t-25.5 27q8 8 22.5 23.5t35.5 37.5q6 -7 19.5 -20.5t35.5 -34.5
q-9 -13 -22.5 -28.5t-31.5 -32.5z" />
    <glyph glyph-name="uniFB74" unicode="&#x684;" horiz-adv-x="636" arabic-form="initial" 
d="M0 0q-8 0 -8 8v60q0 8 8 8q74 0 131.5 6.5t99.5 19.5q67 23 99.5 33.5t56.5 14.5q-19 10 -38.5 22.5t-38.5 27.5q-40 32 -65.5 44t-51.5 12q-31 0 -52 -8t-58 -31q-7 8 -10.5 17.5t-3.5 21.5q0 38 33 61t87 23q32 0 64.5 -13.5t75.5 -45.5q53 -38 89.5 -57.5t73.5 -27.5
q19 -4 46.5 -6.5t63.5 -2.5l-39 -73q-16 2 -36.5 3.5t-43.5 1.5t-43.5 -4t-48 -16t-72.5 -35q-37 -19 -68.5 -31.5t-66 -19.5t-78.5 -10t-106 -3zM354 -133q-21 17 -35.5 30.5t-24.5 24.5q10 9 25 24t34 36q5 -6 19 -19.5t36 -34.5q-10 -14 -23 -29t-31 -32zM366 -258
q-19 14 -33.5 28t-25.5 27q8 8 22.5 23.5t35.5 37.5q6 -7 19.5 -20.5t35.5 -34.5q-9 -13 -22.5 -28.5t-31.5 -32.5z" />
    <glyph glyph-name="uniFB75" unicode="&#x684;" horiz-adv-x="666" arabic-form="medial" 
d="M0 0q-8 0 -8 8v60q0 8 8 8q94 0 163 10.5t124 35.5q32 14 57 23t43 13q-19 9 -38.5 20.5t-38.5 25.5q-39 29 -65 40.5t-52 11.5q-31 0 -52 -8t-58 -31q-7 8 -10.5 17.5t-3.5 21.5q0 38 33 61t87 23q32 0 64.5 -12.5t75.5 -42.5q52 -35 88.5 -53.5t73.5 -26.5
q19 -4 46.5 -6.5t64.5 -2.5l-39 -74q-8 1 -25.5 2t-35.5 3t-30 3q11 -18 23.5 -29t32.5 -16q18 -4 54.5 -6.5t91.5 -2.5q9 0 9 -8v-60q0 -8 -9 -8q-49 1 -85.5 5.5t-63 14t-45.5 25.5q-14 12 -27.5 30.5t-25.5 43.5q-18 -6 -36 -15.5t-36 -19.5l-36 -20q-37 -19 -68.5 -31.5
t-66 -19.5t-78.5 -10t-106 -3zM354 -133q-21 17 -35.5 30.5t-24.5 24.5q10 9 25 24t34 36q5 -6 19 -19.5t36 -34.5q-10 -14 -23 -29t-31 -32zM366 -258q-19 14 -33.5 28t-25.5 27q8 8 22.5 23.5t35.5 37.5q6 -7 19.5 -20.5t35.5 -34.5q-9 -13 -22.5 -28.5t-31.5 -32.5z" />
    <glyph glyph-name="uniFB77" unicode="&#x683;" horiz-adv-x="666" arabic-form="final" 
d="M321 -286q-67 0 -116.5 27t-77 75.5t-27.5 112.5q0 56 25.5 107.5t71.5 93.5q31 28 70.5 51t85.5 39q-42 19 -67.5 29.5t-42.5 16.5q-27 10 -51 10q-31 0 -52 -8t-57 -31q-7 8 -11 17.5t-4 21.5q0 38 33.5 60.5t87.5 22.5q29 0 63 -10.5t93 -36.5q52 -24 99 -36t87 -12
l66 2l-29 -77q-14 -1 -29 -2l-30 -2q-13 0 -25.5 -1t-26.5 -3q16 -35 27 -54t26.5 -28t41.5 -15q22 -4 52 -6t71 -2q8 0 8 -8v-60q0 -8 -8 -8q-89 0 -135 16.5t-75 53.5q-30 37 -48 104q-91 -21 -156.5 -59t-97.5 -88q-13 -20 -20 -42t-7 -45q0 -70 55 -108t155 -38
q86 0 212 36l14 -33q-44 -27 -87 -45.5t-84 -28t-80 -9.5zM403 -95q-22 17 -38.5 32.5t-27.5 29.5q5 5 21 22t43 45q6 -6 21.5 -21t40.5 -39q-19 -30 -60 -69zM253 -109q-22 18 -39 33.5t-28 27.5q14 13 30 29.5t35 38.5q6 -7 21 -22t40 -38q-9 -15 -24 -32t-35 -37z" />
    <glyph glyph-name="uniFB78" unicode="&#x683;" horiz-adv-x="636" arabic-form="initial" 
d="M0 0q-8 0 -8 8v60q0 8 8 8q74 0 131.5 6.5t99.5 19.5q67 23 99.5 33.5t56.5 14.5q-19 10 -38.5 22.5t-38.5 27.5q-40 32 -65.5 44t-51.5 12q-31 0 -52 -8t-58 -31q-7 8 -10.5 17.5t-3.5 21.5q0 38 33 61t87 23q32 0 64.5 -13.5t75.5 -45.5q53 -38 89.5 -57.5t73.5 -27.5
q19 -4 46.5 -6.5t63.5 -2.5l-39 -73q-16 2 -36.5 3.5t-43.5 1.5t-43.5 -4t-48 -16t-72.5 -35q-37 -19 -68.5 -31.5t-66 -19.5t-78.5 -10t-106 -3zM434 -160q-22 17 -38.5 32.5t-27.5 29.5q5 5 21 22t43 45q6 -6 21.5 -21t40.5 -39q-19 -30 -60 -69zM284 -174
q-22 18 -39 33.5t-28 27.5q14 13 30 29.5t35 38.5q6 -7 21 -22t40 -38q-9 -15 -24 -32t-35 -37z" />
    <glyph glyph-name="uniFB79" unicode="&#x683;" horiz-adv-x="666" arabic-form="medial" 
d="M0 0q-8 0 -8 8v60q0 8 8 8q94 0 163 10.5t124 35.5q32 14 57 23t43 13q-19 9 -38.5 20.5t-38.5 25.5q-39 29 -65 40.5t-52 11.5q-31 0 -52 -8t-58 -31q-7 8 -10.5 17.5t-3.5 21.5q0 38 33 61t87 23q32 0 64.5 -12.5t75.5 -42.5q52 -35 88.5 -53.5t73.5 -26.5
q19 -4 46.5 -6.5t64.5 -2.5l-39 -74q-8 1 -25.5 2t-35.5 3t-30 3q11 -18 23.5 -29t32.5 -16q18 -4 54.5 -6.5t91.5 -2.5q9 0 9 -8v-60q0 -8 -9 -8q-49 1 -85.5 5.5t-63 14t-45.5 25.5q-14 12 -27.5 30.5t-25.5 43.5q-18 -6 -36 -15.5t-36 -19.5l-36 -20q-37 -19 -68.5 -31.5
t-66 -19.5t-78.5 -10t-106 -3zM434 -160q-22 17 -38.5 32.5t-27.5 29.5q5 5 21 22t43 45q6 -6 21.5 -21t40.5 -39q-19 -30 -60 -69zM284 -174q-22 18 -39 33.5t-28 27.5q14 13 30 29.5t35 38.5q6 -7 21 -22t40 -38q-9 -15 -24 -32t-35 -37z" />
    <glyph glyph-name="uniFB7B" unicode="&#x686;" horiz-adv-x="666" arabic-form="final" 
d="M321 -286q-67 0 -116.5 27t-77 75.5t-27.5 112.5q0 56 25.5 107.5t71.5 93.5q31 28 70.5 51t85.5 39q-42 19 -67.5 29.5t-42.5 16.5q-27 10 -51 10q-31 0 -52 -8t-57 -31q-7 8 -11 17.5t-4 21.5q0 38 33.5 60.5t87.5 22.5q29 0 63 -10.5t93 -36.5q52 -24 99 -36t87 -12
l66 2l-29 -77q-14 -1 -29 -2l-30 -2q-13 0 -25.5 -1t-26.5 -3q16 -35 27 -54t26.5 -28t41.5 -15q22 -4 52 -6t71 -2q8 0 8 -8v-60q0 -8 -8 -8q-89 0 -135 16.5t-75 53.5q-30 37 -48 104q-91 -21 -156.5 -59t-97.5 -88q-13 -20 -20 -42t-7 -45q0 -70 55 -108t155 -38
q86 0 212 36l14 -33q-44 -27 -87 -45.5t-84 -28t-80 -9.5zM264 -79q-19 16 -34 29.5t-26 25.5q12 11 26.5 26t31.5 35q9 -10 23 -23t33 -31q-9 -14 -22.5 -29.5t-31.5 -32.5zM407 -66q-17 14 -32 27.5t-28 27.5q8 8 23 23.5t36 37.5l21.5 -21.5l33.5 -33.5
q-9 -13 -22.5 -28.5t-31.5 -32.5zM338 -147q-33 22 -57 49q14 13 27.5 27t26.5 28q24 -30 54 -55q-16 -17 -28.5 -29t-22.5 -20z" />
    <glyph glyph-name="uniFB7C" unicode="&#x686;" horiz-adv-x="636" arabic-form="initial" 
d="M0 0q-8 0 -8 8v60q0 8 8 8q74 0 131.5 6.5t99.5 19.5q67 23 99.5 33.5t56.5 14.5q-19 10 -38.5 22.5t-38.5 27.5q-40 32 -65.5 44t-51.5 12q-31 0 -52 -8t-58 -31q-7 8 -10.5 17.5t-3.5 21.5q0 38 33 61t87 23q32 0 64.5 -13.5t75.5 -45.5q53 -38 89.5 -57.5t73.5 -27.5
q19 -4 46.5 -6.5t63.5 -2.5l-39 -73q-16 2 -36.5 3.5t-43.5 1.5t-43.5 -4t-48 -16t-72.5 -35q-37 -19 -68.5 -31.5t-66 -19.5t-78.5 -10t-106 -3zM294 -151q-19 16 -34 29.5t-26 25.5q12 11 26.5 26t31.5 35q9 -10 23 -23t33 -31q-9 -14 -22.5 -29.5t-31.5 -32.5zM437 -138
q-17 14 -32 27.5t-28 27.5q8 8 23 23.5t36 37.5l21.5 -21.5l33.5 -33.5q-9 -13 -22.5 -28.5t-31.5 -32.5zM368 -219q-33 22 -57 49q14 13 27.5 27t26.5 28q24 -30 54 -55q-16 -17 -28.5 -29t-22.5 -20z" />
    <glyph glyph-name="uniFB7D" unicode="&#x686;" horiz-adv-x="666" arabic-form="medial" 
d="M0 0q-8 0 -8 8v60q0 8 8 8q94 0 163 10.5t124 35.5q32 14 57 23t43 13q-19 9 -38.5 20.5t-38.5 25.5q-39 29 -65 40.5t-52 11.5q-31 0 -52 -8t-58 -31q-7 8 -10.5 17.5t-3.5 21.5q0 38 33 61t87 23q32 0 64.5 -12.5t75.5 -42.5q52 -35 88.5 -53.5t73.5 -26.5
q19 -4 46.5 -6.5t64.5 -2.5l-39 -74q-8 1 -25.5 2t-35.5 3t-30 3q11 -18 23.5 -29t32.5 -16q18 -4 54.5 -6.5t91.5 -2.5q9 0 9 -8v-60q0 -8 -9 -8q-49 1 -85.5 5.5t-63 14t-45.5 25.5q-14 12 -27.5 30.5t-25.5 43.5q-18 -6 -36 -15.5t-36 -19.5l-36 -20q-37 -19 -68.5 -31.5
t-66 -19.5t-78.5 -10t-106 -3zM294 -151q-19 16 -34 29.5t-26 25.5q12 11 26.5 26t31.5 35q9 -10 23 -23t33 -31q-9 -14 -22.5 -29.5t-31.5 -32.5zM437 -138q-17 14 -32 27.5t-28 27.5q8 8 23 23.5t36 37.5l21.5 -21.5l33.5 -33.5q-9 -13 -22.5 -28.5t-31.5 -32.5zM368 -219
q-33 22 -57 49q14 13 27.5 27t26.5 28q24 -30 54 -55q-16 -17 -28.5 -29t-22.5 -20z" />
    <glyph glyph-name="uniFB7F" unicode="&#x687;" horiz-adv-x="666" arabic-form="final" 
d="M321 -286q-67 0 -116.5 27t-77 75.5t-27.5 112.5q0 56 25.5 107.5t71.5 93.5q31 28 70.5 51t85.5 39q-42 19 -67.5 29.5t-42.5 16.5q-27 10 -51 10q-31 0 -52 -8t-57 -31q-7 8 -11 17.5t-4 21.5q0 38 33.5 60.5t87.5 22.5q29 0 63 -10.5t93 -36.5q52 -24 99 -36t87 -12
l66 2l-29 -77q-14 -1 -29 -2l-30 -2q-13 0 -25.5 -1t-26.5 -3q16 -35 27 -54t26.5 -28t41.5 -15q22 -4 52 -6t71 -2q8 0 8 -8v-60q0 -8 -8 -8q-89 0 -135 16.5t-75 53.5q-30 37 -48 104q-91 -21 -156.5 -59t-97.5 -88q-13 -20 -20 -42t-7 -45q0 -70 55 -108t155 -38
q86 0 212 36l14 -33q-44 -27 -87 -45.5t-84 -28t-80 -9.5zM385 -34q-30 23 -48 44q12 11 24 23.5t23 24.5q5 -6 16.5 -17t27.5 -27q-8 -11 -18.5 -23t-24.5 -25zM294 -134q-30 23 -48 44l24 24t23 24l17 -17t27 -26q-10 -13 -20.5 -25.5t-22.5 -23.5zM284 -34q-30 23 -48 44
l20 20t27 28l17 -17l27 -27q-16 -24 -43 -48zM395 -134q-29 22 -48 44q12 12 23.5 24t22.5 24q11 -11 22 -21.5t22 -21.5q-7 -11 -17.5 -23.5t-24.5 -25.5z" />
    <glyph glyph-name="uniFB80" unicode="&#x687;" horiz-adv-x="636" arabic-form="initial" 
d="M0 0q-8 0 -8 8v60q0 8 8 8q74 0 131.5 6.5t99.5 19.5q67 23 99.5 33.5t56.5 14.5q-19 10 -38.5 22.5t-38.5 27.5q-40 32 -65.5 44t-51.5 12q-31 0 -52 -8t-58 -31q-7 8 -10.5 17.5t-3.5 21.5q0 38 33 61t87 23q32 0 64.5 -13.5t75.5 -45.5q53 -38 89.5 -57.5t73.5 -27.5
q19 -4 46.5 -6.5t63.5 -2.5l-39 -73q-16 2 -36.5 3.5t-43.5 1.5t-43.5 -4t-48 -16t-72.5 -35q-37 -19 -68.5 -31.5t-66 -19.5t-78.5 -10t-106 -3zM407 -114q-30 23 -48 44q12 11 24 23.5t23 24.5q5 -6 16.5 -17t27.5 -27q-8 -11 -18.5 -23t-24.5 -25zM316 -214
q-30 23 -48 44l24 24t23 24l17 -17t27 -26q-10 -13 -20.5 -25.5t-22.5 -23.5zM306 -114q-30 23 -48 44l20 20t27 28l17 -17l27 -27q-16 -24 -43 -48zM417 -214q-29 22 -48 44q12 12 23.5 24t22.5 24q11 -11 22 -21.5t22 -21.5q-7 -11 -17.5 -23.5t-24.5 -25.5z" />
    <glyph glyph-name="uniFB81" unicode="&#x687;" horiz-adv-x="666" arabic-form="medial" 
d="M0 0q-8 0 -8 8v60q0 8 8 8q94 0 163 10.5t124 35.5q32 14 57 23t43 13q-19 9 -38.5 20.5t-38.5 25.5q-39 29 -65 40.5t-52 11.5q-31 0 -52 -8t-58 -31q-7 8 -10.5 17.5t-3.5 21.5q0 38 33 61t87 23q32 0 64.5 -12.5t75.5 -42.5q52 -35 88.5 -53.5t73.5 -26.5
q19 -4 46.5 -6.5t64.5 -2.5l-39 -74q-8 1 -25.5 2t-35.5 3t-30 3q11 -18 23.5 -29t32.5 -16q18 -4 54.5 -6.5t91.5 -2.5q9 0 9 -8v-60q0 -8 -9 -8q-49 1 -85.5 5.5t-63 14t-45.5 25.5q-14 12 -27.5 30.5t-25.5 43.5q-18 -6 -36 -15.5t-36 -19.5l-36 -20q-37 -19 -68.5 -31.5
t-66 -19.5t-78.5 -10t-106 -3zM407 -114q-30 23 -48 44q12 11 24 23.5t23 24.5q5 -6 16.5 -17t27.5 -27q-8 -11 -18.5 -23t-24.5 -25zM316 -214q-30 23 -48 44l24 24t23 24l17 -17t27 -26q-10 -13 -20.5 -25.5t-22.5 -23.5zM306 -114q-30 23 -48 44l20 20t27 28l17 -17
l27 -27q-16 -24 -43 -48zM417 -214q-29 22 -48 44q12 12 23.5 24t22.5 24q11 -11 22 -21.5t22 -21.5q-7 -11 -17.5 -23.5t-24.5 -25.5z" />
    <glyph glyph-name="uniFB83" unicode="&#x68d;" horiz-adv-x="474" arabic-form="final" 
d="M156 0q-122 0 -122 63q0 17 4.5 30t13.5 23q25 -20 57 -30t79 -10q32 0 66.5 5.5t71.5 15.5q-25 45 -45.5 92t-32.5 86t-12 57q0 25 13 41.5t40 24.5q23 -85 46 -153.5t57 -116.5q20 -29 41 -40.5t49 -11.5q9 0 9 -8v-60q0 -8 -9 -8q-40 0 -70.5 13.5t-53.5 38.5
q-91 -52 -202 -52zM296 -173q-22 17 -38.5 32.5t-27.5 29.5q5 5 21 22t43 45q6 -6 21.5 -21t40.5 -39q-19 -30 -60 -69zM146 -187q-22 18 -39 33.5t-28 27.5q14 13 30 29.5t35 38.5q6 -7 21 -22t40 -38q-9 -15 -24 -32t-35 -37z" />
    <glyph glyph-name="uniFB85" unicode="&#x68c;" horiz-adv-x="474" arabic-form="final" 
d="M156 0q-122 0 -122 63q0 17 4.5 30t13.5 23q25 -20 57 -30t79 -10q32 0 66.5 5.5t71.5 15.5q-25 45 -45.5 92t-32.5 86t-12 57q0 25 13 41.5t40 24.5q23 -85 46 -153.5t57 -116.5q20 -29 41 -40.5t49 -11.5q9 0 9 -8v-60q0 -8 -9 -8q-40 0 -70.5 13.5t-53.5 38.5
q-91 -52 -202 -52zM298 457q-22 17 -38.5 32.5t-27.5 29.5q5 5 21 22t43 45q6 -6 21.5 -21t40.5 -39q-19 -30 -60 -69zM148 443q-22 18 -39 33.5t-28 27.5q14 13 30 29.5t35 38.5q6 -7 21 -22t40 -38q-9 -15 -24 -32t-35 -37z" />
    <glyph glyph-name="uniFB87" unicode="&#x68e;" horiz-adv-x="474" arabic-form="final" 
d="M156 0q-122 0 -122 63q0 17 4.5 30t13.5 23q25 -20 57 -30t79 -10q32 0 66.5 5.5t71.5 15.5q-25 45 -45.5 92t-32.5 86t-12 57q0 25 13 41.5t40 24.5q23 -85 46 -153.5t57 -116.5q20 -29 41 -40.5t49 -11.5q9 0 9 -8v-60q0 -8 -9 -8q-40 0 -70.5 13.5t-53.5 38.5
q-91 -52 -202 -52zM159 443q-19 15 -34 29t-26 26q12 11 26.5 26.5t31.5 34.5q5 -6 19 -19.5t36 -35.5q-9 -13 -22 -28.5t-31 -32.5zM301 456q-17 14 -31.5 27.5t-27.5 27.5q9 8 24 23.5t34 37.5q14 -14 27.5 -28t27.5 -27q-10 -14 -23 -29.5t-31 -31.5zM230 538
q-13 8 -27.5 20.5t-28.5 28.5q15 15 28.5 29t24.5 27q10 -13 23.5 -26.5t31.5 -29.5q-14 -16 -27.5 -28.5t-24.5 -20.5z" />
    <glyph glyph-name="uniFB89" unicode="&#x688;" horiz-adv-x="474" arabic-form="final" 
d="M156 0q-122 0 -122 63q0 17 4.5 30t13.5 23q25 -20 57 -30t79 -10q32 0 66.5 5.5t71.5 15.5q-25 45 -45.5 92t-32.5 86t-12 57q0 25 13 41.5t40 24.5q23 -85 46 -153.5t57 -116.5q20 -29 41 -40.5t49 -11.5q9 0 9 -8v-60q0 -8 -9 -8q-40 0 -70.5 13.5t-53.5 38.5
q-91 -52 -202 -52zM243 458q-67 0 -122 32l6 25q9 -2 20.5 -4t25.5 -4l18 20q-10 34 -17 59.5t-7 35.5q0 14 11 23t30 10q3 -11 6 -19.5t5 -14.5l-8 -6l3 -65q17 14 32.5 25.5t29.5 11.5t29.5 -9.5t26.5 -22.5t11 -23q0 -21 -13.5 -38t-36 -26.5t-50.5 -9.5zM245 502
q23 0 40 4.5t36 11.5q-16 14 -28 18t-23 4q-14 0 -32 -9t-39 -27z" />
    <glyph glyph-name="uniFB8B" unicode="&#x698;" horiz-adv-x="404" arabic-form="final" 
d="M111 -204q-16 0 -40.5 9t-49.5 22t-41 25l13 33q28 -5 51.5 -8t43.5 -3q75 0 128.5 45t81.5 130q-7 16 -14.5 31.5t-16.5 31.5q-34 61 -50 97.5t-16 61.5q0 26 15 41.5t43 28.5q4 -13 8.5 -28.5t11.5 -32.5q16 -41 26.5 -71.5t15.5 -49.5q6 -19 9.5 -34.5t4.5 -28.5
q34 -20 78 -20q8 0 8 -8v-60q0 -8 -8 -8q-47 0 -82 24q-11 -69 -42 -120.5t-77 -79.5t-101 -28zM137 382q-19 15 -34 29t-26 26q12 11 26.5 26.5t31.5 34.5q5 -6 19 -19.5t36 -35.5q-9 -13 -22 -28.5t-31 -32.5zM279 395q-17 14 -31.5 27.5t-27.5 27.5q9 8 24 23.5t34 37.5
q14 -14 27.5 -28t27.5 -27q-10 -14 -23 -29.5t-31 -31.5zM208 477q-13 8 -27.5 20.5t-28.5 28.5q15 15 28.5 29t24.5 27q10 -13 23.5 -26.5t31.5 -29.5q-14 -16 -27.5 -28.5t-24.5 -20.5z" />
    <glyph glyph-name="uniFB8D" unicode="&#x691;" horiz-adv-x="404" arabic-form="final" 
d="M111 -204q-16 0 -40.5 9t-49.5 22t-41 25l13 33q28 -5 51.5 -8t43.5 -3q75 0 128.5 45t81.5 130q-7 16 -14.5 31.5t-16.5 31.5q-34 61 -50 97.5t-16 61.5q0 26 15 41.5t43 28.5q4 -13 8.5 -28.5t11.5 -32.5q16 -41 26.5 -71.5t15.5 -49.5q6 -19 9.5 -34.5t4.5 -28.5
q34 -20 78 -20q8 0 8 -8v-60q0 -8 -8 -8q-47 0 -82 24q-11 -69 -42 -120.5t-77 -79.5t-101 -28zM221 397q-67 0 -122 32l6 25q9 -2 20.5 -4t25.5 -4l18 20q-10 34 -17 59.5t-7 35.5q0 14 11 23t30 10q3 -11 6 -19.5t5 -14.5l-8 -6l3 -65q17 14 32.5 25.5t29.5 11.5
t29.5 -9.5t26.5 -22.5t11 -23q0 -21 -13.5 -38t-36 -26.5t-50.5 -9.5zM223 441q23 0 40 4.5t36 11.5q-16 14 -28 18t-23 4q-14 0 -32 -9t-39 -27z" />
    <glyph glyph-name="uniFB8F" unicode="&#x6a9;" horiz-adv-x="776" arabic-form="final" 
d="M307 0q-82 0 -135 16t-79 47.5t-26 77.5q0 11 1.5 21.5t4.5 21.5t7 21h36q-2 -10 -3 -20t-1 -21q0 -23 11.5 -40t34.5 -27t62.5 -15.5t94.5 -5.5q42 0 80.5 2.5t73.5 9t68 18t65 29.5q-11 32 -32 62t-53 57q-25 20 -55.5 39.5t-68.5 37.5q-43 21 -64 39.5t-21 44.5
q0 19 4.5 32.5t15.5 23.5q8 8 38 25t83 43q27 13 49 22.5t49.5 21t68.5 28t105 43.5q8 -7 12 -17.5t4 -20.5q-3 -22 -11.5 -35.5t-31.5 -22.5q-56 -23 -112.5 -47t-113 -47.5t-113.5 -46.5q72 -19 138.5 -60t106.5 -93q42 -54 42 -100q0 -10 -1.5 -20t-4.5 -20
q60 -48 138 -48q9 0 9 -8v-60q0 -8 -9 -8q-48 0 -91.5 17.5t-78.5 55.5q-37 -37 -111.5 -55t-185.5 -18z" />
    <glyph glyph-name="uniFB90" unicode="&#x6a9;" horiz-adv-x="415" arabic-form="initial" 
d="M0 0q-8 0 -8 8v60q0 8 8 8q69 0 121 7.5t92 18.5q20 5 40.5 13.5t41.5 19.5q-9 28 -26 54t-43 50t-60.5 47t-79.5 45q-12 -3 -25 -3q-26 0 -43.5 18.5t-17.5 46.5q0 11 3 26.5t7.5 30.5t8.5 26t7 12q67 35 116 59t88.5 42t75.5 33.5t76 31.5q15 -12 15 -38q0 -23 -10 -36
t-33 -22q-68 -28 -126 -53t-105.5 -46t-85.5 -39q76 -19 145.5 -61.5t110.5 -95.5q42 -52 42 -99q0 -82 -87 -124q-42 -19 -103.5 -29.5t-144.5 -10.5z" />
    <glyph glyph-name="uniFB91" unicode="&#x6a9;" horiz-adv-x="459" arabic-form="medial" 
d="M0 0q-8 0 -8 8v60q0 8 8 8q123 0 213 26q38 10 82 33q-10 32 -31.5 61.5t-53.5 56.5q-25 21 -55.5 40.5t-68.5 37.5q-43 21 -64 39.5t-21 44.5q0 19 5 32.5t15 23.5q9 9 28.5 20.5t51 27t76.5 35.5t104 44.5t134 55.5q15 -15 15 -38t-10 -36t-32 -22q-57 -23 -113.5 -47
t-113 -47.5t-113.5 -46.5q73 -19 139.5 -60t105.5 -93q42 -54 42 -100q0 -22 -6 -40q60 -48 138 -48q9 0 9 -8v-60q0 -8 -9 -8q-48 0 -91.5 17.5t-78.5 55.5q-7 -7 -16 -13.5t-19 -12.5q-83 -47 -262 -47z" />
    <glyph glyph-name="uniFB93" unicode="&#x6af;" horiz-adv-x="776" arabic-form="final" 
d="M307 0q-82 0 -135 16t-79 47.5t-26 77.5q0 11 1.5 21.5t4.5 21.5t7 21h36q-2 -10 -3 -20t-1 -21q0 -23 11.5 -40t34.5 -27t62.5 -15.5t94.5 -5.5q42 0 80.5 2.5t73.5 9t68 18t65 29.5q-11 32 -32 62t-53 57q-25 20 -55.5 39.5t-68.5 37.5q-43 21 -64 39.5t-21 44.5
q0 19 4.5 32.5t15.5 23.5q8 8 38 25t83 43q27 13 49 22.5t49.5 21t68.5 28t105 43.5q8 -7 12 -17.5t4 -20.5q-3 -22 -11.5 -35.5t-31.5 -22.5q-56 -23 -112.5 -47t-113 -47.5t-113.5 -46.5q72 -19 138.5 -60t106.5 -93q42 -54 42 -100q0 -10 -1.5 -20t-4.5 -20
q60 -48 138 -48q9 0 9 -8v-60q0 -8 -9 -8q-48 0 -91.5 17.5t-78.5 55.5q-37 -37 -111.5 -55t-185.5 -18zM320 512q-4 17 -6 28.5t-2 18.5q0 5 2 5q28 14 56 28.5t56 28.5q70 32 139 65l138 66q16 -12 16 -30q-2 -15 -7 -23.5t-21 -15.5q-15 -7 -32 -14.5t-44 -19.5
q-52 -23 -127.5 -58t-167.5 -79z" />
    <glyph glyph-name="uniFB94" unicode="&#x6af;" horiz-adv-x="415" arabic-form="initial" 
d="M0 0q-8 0 -8 8v60q0 8 8 8q69 0 121 7.5t92 18.5q20 5 40.5 13.5t41.5 19.5q-9 28 -26 54t-43 50t-60.5 47t-79.5 45q-12 -3 -25 -3q-26 0 -43.5 18.5t-17.5 46.5q0 11 3 26.5t7.5 30.5t8.5 26t7 12q67 35 116 59t88.5 42t75.5 33.5t76 31.5q15 -12 15 -38q0 -23 -10 -36
t-33 -22q-68 -28 -126 -53t-105.5 -46t-85.5 -39q76 -19 145.5 -61.5t110.5 -95.5q42 -52 42 -99q0 -82 -87 -124q-42 -19 -103.5 -29.5t-144.5 -10.5zM-20 512q-4 17 -6 28.5t-2 18.5q0 5 2 5q28 14 56 28.5t56 28.5q70 32 139 65l138 66q16 -12 16 -30q-2 -15 -7 -23.5
t-21 -15.5q-15 -7 -32 -14.5t-44 -19.5q-52 -23 -127.5 -58t-167.5 -79z" />
    <glyph glyph-name="uniFB95" unicode="&#x6af;" horiz-adv-x="459" arabic-form="medial" 
d="M0 0q-8 0 -8 8v60q0 8 8 8q123 0 213 26q38 10 82 33q-10 32 -31.5 61.5t-53.5 56.5q-25 21 -55.5 40.5t-68.5 37.5q-43 21 -64 39.5t-21 44.5q0 19 5 32.5t15 23.5q9 9 28.5 20.5t51 27t76.5 35.5t104 44.5t134 55.5q15 -15 15 -38t-10 -36t-32 -22q-57 -23 -113.5 -47
t-113 -47.5t-113.5 -46.5q73 -19 139.5 -60t105.5 -93q42 -54 42 -100q0 -22 -6 -40q60 -48 138 -48q9 0 9 -8v-60q0 -8 -9 -8q-48 0 -91.5 17.5t-78.5 55.5q-7 -7 -16 -13.5t-19 -12.5q-83 -47 -262 -47zM14 512q-4 17 -6 28.5t-2 18.5q0 5 2 5q28 14 56 28.5t56 28.5
q70 32 139 65l138 66q16 -12 16 -30q-2 -15 -7 -23.5t-21 -15.5q-15 -7 -32 -14.5t-44 -19.5q-52 -23 -127.5 -58t-167.5 -79z" />
    <glyph glyph-name="uniFB97" unicode="&#x6b3;" horiz-adv-x="776" arabic-form="final" 
d="M307 0q-82 0 -135 16t-79 47.5t-26 77.5q0 11 1.5 21.5t4.5 21.5t7 21h36q-2 -10 -3 -20t-1 -21q0 -23 11.5 -40t34.5 -27t62.5 -15.5t94.5 -5.5q42 0 80.5 2.5t73.5 9t68 18t65 29.5q-11 32 -32 62t-53 57q-25 20 -55.5 39.5t-68.5 37.5q-43 21 -64 39.5t-21 44.5
q0 19 4.5 32.5t15.5 23.5q8 8 38 25t83 43q27 13 49 22.5t49.5 21t68.5 28t105 43.5q8 -7 12 -17.5t4 -20.5q-3 -22 -11.5 -35.5t-31.5 -22.5q-56 -23 -112.5 -47t-113 -47.5t-113.5 -46.5q72 -19 138.5 -60t106.5 -93q42 -54 42 -100q0 -10 -1.5 -20t-4.5 -20
q60 -48 138 -48q9 0 9 -8v-60q0 -8 -9 -8q-48 0 -91.5 17.5t-78.5 55.5q-37 -37 -111.5 -55t-185.5 -18zM320 512q-4 17 -6 28.5t-2 18.5q0 5 2 5q28 14 56 28.5t56 28.5q70 32 139 65l138 66q16 -12 16 -30q-2 -15 -7 -23.5t-21 -15.5q-15 -7 -32 -14.5t-44 -19.5
q-52 -23 -127.5 -58t-167.5 -79zM451 -156q-21 17 -35.5 30.5t-24.5 24.5q10 9 25 24t34 36q5 -6 19 -19.5t36 -34.5q-10 -14 -23 -29t-31 -32zM463 -281q-19 14 -33.5 28t-25.5 27q8 8 22.5 23.5t35.5 37.5q6 -7 19.5 -20.5t35.5 -34.5q-9 -13 -22.5 -28.5t-31.5 -32.5z
" />
    <glyph glyph-name="uniFB98" unicode="&#x6b3;" horiz-adv-x="415" arabic-form="initial" 
d="M0 0q-8 0 -8 8v60q0 8 8 8q69 0 121 7.5t92 18.5q20 5 40.5 13.5t41.5 19.5q-9 28 -26 54t-43 50t-60.5 47t-79.5 45q-12 -3 -25 -3q-26 0 -43.5 18.5t-17.5 46.5q0 11 3 26.5t7.5 30.5t8.5 26t7 12q67 35 116 59t88.5 42t75.5 33.5t76 31.5q15 -12 15 -38q0 -23 -10 -36
t-33 -22q-68 -28 -126 -53t-105.5 -46t-85.5 -39q76 -19 145.5 -61.5t110.5 -95.5q42 -52 42 -99q0 -82 -87 -124q-42 -19 -103.5 -29.5t-144.5 -10.5zM-20 512q-4 17 -6 28.5t-2 18.5q0 5 2 5q28 14 56 28.5t56 28.5q70 32 139 65l138 66q16 -12 16 -30q-2 -15 -7 -23.5
t-21 -15.5q-15 -7 -32 -14.5t-44 -19.5q-52 -23 -127.5 -58t-167.5 -79zM198 -156q-21 17 -35.5 30.5t-24.5 24.5q10 9 25 24t34 36q5 -6 19 -19.5t36 -34.5q-10 -14 -23 -29t-31 -32zM210 -281q-19 14 -33.5 28t-25.5 27q8 8 22.5 23.5t35.5 37.5q6 -7 19.5 -20.5
t35.5 -34.5q-9 -13 -22.5 -28.5t-31.5 -32.5z" />
    <glyph glyph-name="uniFB99" unicode="&#x6b3;" horiz-adv-x="459" arabic-form="medial" 
d="M0 0q-8 0 -8 8v60q0 8 8 8q123 0 213 26q38 10 82 33q-10 32 -31.5 61.5t-53.5 56.5q-25 21 -55.5 40.5t-68.5 37.5q-43 21 -64 39.5t-21 44.5q0 19 5 32.5t15 23.5q9 9 28.5 20.5t51 27t76.5 35.5t104 44.5t134 55.5q15 -15 15 -38t-10 -36t-32 -22q-57 -23 -113.5 -47
t-113 -47.5t-113.5 -46.5q73 -19 139.5 -60t105.5 -93q42 -54 42 -100q0 -22 -6 -40q60 -48 138 -48q9 0 9 -8v-60q0 -8 -9 -8q-48 0 -91.5 17.5t-78.5 55.5q-7 -7 -16 -13.5t-19 -12.5q-83 -47 -262 -47zM14 512q-4 17 -6 28.5t-2 18.5q0 5 2 5q28 14 56 28.5t56 28.5
q70 32 139 65l138 66q16 -12 16 -30q-2 -15 -7 -23.5t-21 -15.5q-15 -7 -32 -14.5t-44 -19.5q-52 -23 -127.5 -58t-167.5 -79zM198 -156q-21 17 -35.5 30.5t-24.5 24.5q10 9 25 24t34 36q5 -6 19 -19.5t36 -34.5q-10 -14 -23 -29t-31 -32zM210 -281q-19 14 -33.5 28
t-25.5 27q8 8 22.5 23.5t35.5 37.5q6 -7 19.5 -20.5t35.5 -34.5q-9 -13 -22.5 -28.5t-31.5 -32.5z" />
    <glyph glyph-name="uniFB9B" unicode="&#x6b1;" horiz-adv-x="776" arabic-form="final" 
d="M307 0q-82 0 -135 16t-79 47.5t-26 77.5q0 11 1.5 21.5t4.5 21.5t7 21h36q-2 -10 -3 -20t-1 -21q0 -23 11.5 -40t34.5 -27t62.5 -15.5t94.5 -5.5q42 0 80.5 2.5t73.5 9t68 18t65 29.5q-11 32 -32 62t-53 57q-25 20 -55.5 39.5t-68.5 37.5q-43 21 -64 39.5t-21 44.5
q0 19 4.5 32.5t15.5 23.5q8 8 38 25t83 43q27 13 49 22.5t49.5 21t68.5 28t105 43.5q8 -7 12 -17.5t4 -20.5q-3 -22 -11.5 -35.5t-31.5 -22.5q-56 -23 -112.5 -47t-113 -47.5t-113.5 -46.5q72 -19 138.5 -60t106.5 -93q42 -54 42 -100q0 -10 -1.5 -20t-4.5 -20
q60 -48 138 -48q9 0 9 -8v-60q0 -8 -9 -8q-48 0 -91.5 17.5t-78.5 55.5q-37 -37 -111.5 -55t-185.5 -18zM320 512q-4 17 -6 28.5t-2 18.5q0 5 2 5q28 14 56 28.5t56 28.5q70 32 139 65l138 66q16 -12 16 -30q-2 -15 -7 -23.5t-21 -15.5q-15 -7 -32 -14.5t-44 -19.5
q-52 -23 -127.5 -58t-167.5 -79zM465 678q-16 13 -27 23.5t-19 19.5l17.5 17.5t27.5 30.5l43 -43q-12 -16 -22.5 -28t-19.5 -20zM379 634q-16 13 -27 24t-18 19q11 11 22 22.5t22 24.5l43 -42q-21 -30 -42 -48z" />
    <glyph glyph-name="uniFB9C" unicode="&#x6b1;" horiz-adv-x="415" arabic-form="initial" 
d="M0 0q-8 0 -8 8v60q0 8 8 8q69 0 121 7.5t92 18.5q20 5 40.5 13.5t41.5 19.5q-9 28 -26 54t-43 50t-60.5 47t-79.5 45q-12 -3 -25 -3q-26 0 -43.5 18.5t-17.5 46.5q0 11 3 26.5t7.5 30.5t8.5 26t7 12q67 35 116 59t88.5 42t75.5 33.5t76 31.5q15 -12 15 -38q0 -23 -10 -36
t-33 -22q-68 -28 -126 -53t-105.5 -46t-85.5 -39q76 -19 145.5 -61.5t110.5 -95.5q42 -52 42 -99q0 -82 -87 -124q-42 -19 -103.5 -29.5t-144.5 -10.5zM-20 512q-4 17 -6 28.5t-2 18.5q0 5 2 5q28 14 56 28.5t56 28.5q70 32 139 65l138 66q16 -12 16 -30q-2 -15 -7 -23.5
t-21 -15.5q-15 -7 -32 -14.5t-44 -19.5q-52 -23 -127.5 -58t-167.5 -79zM125 678q-16 13 -27 23.5t-19 19.5l17.5 17.5t27.5 30.5l43 -43q-12 -16 -22.5 -28t-19.5 -20zM39 634q-16 13 -27 24t-18 19q11 11 22 22.5t22 24.5l43 -42q-21 -30 -42 -48z" />
    <glyph glyph-name="uniFB9D" unicode="&#x6b1;" horiz-adv-x="459" arabic-form="medial" 
d="M0 0q-8 0 -8 8v60q0 8 8 8q123 0 213 26q38 10 82 33q-10 32 -31.5 61.5t-53.5 56.5q-25 21 -55.5 40.5t-68.5 37.5q-43 21 -64 39.5t-21 44.5q0 19 5 32.5t15 23.5q9 9 28.5 20.5t51 27t76.5 35.5t104 44.5t134 55.5q15 -15 15 -38t-10 -36t-32 -22q-57 -23 -113.5 -47
t-113 -47.5t-113.5 -46.5q73 -19 139.5 -60t105.5 -93q42 -54 42 -100q0 -22 -6 -40q60 -48 138 -48q9 0 9 -8v-60q0 -8 -9 -8q-48 0 -91.5 17.5t-78.5 55.5q-7 -7 -16 -13.5t-19 -12.5q-83 -47 -262 -47zM14 512q-4 17 -6 28.5t-2 18.5q0 5 2 5q28 14 56 28.5t56 28.5
q70 32 139 65l138 66q16 -12 16 -30q-2 -15 -7 -23.5t-21 -15.5q-15 -7 -32 -14.5t-44 -19.5q-52 -23 -127.5 -58t-167.5 -79zM159 678q-16 13 -27 23.5t-19 19.5l17.5 17.5t27.5 30.5l43 -43q-12 -16 -22.5 -28t-19.5 -20zM73 634q-16 13 -27 24t-18 19q11 11 22 22.5
t22 24.5l43 -42q-21 -30 -42 -48z" />
    <glyph glyph-name="uniFB9F" unicode="&#x6ba;" horiz-adv-x="585" arabic-form="final" 
d="M249 -262q-85 0 -133 49t-48 139q0 20 1.5 37t5.5 38.5t12 54.5l37 -9q-11 -46 -11 -71q0 -73 36.5 -114t101.5 -41q50 0 100.5 16.5t90.5 45t56 63.5q-33 71 -49 119t-16 72q0 26 14.5 46.5t50.5 42.5q2 -16 7.5 -49t15.5 -84q36 -17 73 -17q9 0 9 -8v-60q0 -8 -9 -8
q-16 0 -31 3t-29 9l1 -29q0 -61 -39 -117.5t-107 -91.5q-34 -18 -69 -27t-71 -9z" />
    <glyph glyph-name="uniFBA1" unicode="&#x6bb;" horiz-adv-x="585" arabic-form="final" 
d="M249 -262q-85 0 -133 49t-48 139q0 20 1.5 37t5.5 38.5t12 54.5l37 -9q-11 -46 -11 -71q0 -73 36.5 -114t101.5 -41q50 0 100.5 16.5t90.5 45t56 63.5q-33 71 -49 119t-16 72q0 26 14.5 46.5t50.5 42.5q2 -16 7.5 -49t15.5 -84q36 -17 73 -17q9 0 9 -8v-60q0 -8 -9 -8
q-16 0 -31 3t-29 9l1 -29q0 -61 -39 -117.5t-107 -91.5q-34 -18 -69 -27t-71 -9zM294 232q-67 0 -122 32l6 25q9 -2 20.5 -4t25.5 -4l18 20q-10 34 -17 59.5t-7 35.5q0 14 11 23t30 10q3 -11 6 -19.5t5 -14.5l-8 -6l3 -65q17 14 32.5 25.5t29.5 11.5t29.5 -9.5t26.5 -22.5
t11 -23q0 -21 -13.5 -38t-36 -26.5t-50.5 -9.5zM296 276q23 0 40 4.5t36 11.5q-16 14 -28 18t-23 4q-14 0 -32 -9t-39 -27z" />
    <glyph glyph-name="uniFBA5" unicode="&#x6c0;" horiz-adv-x="452" arabic-form="final" 
d="M460 0q-60 0 -97.5 23t-43.5 64l-4 21l-36 -69q-36 4 -56.5 6.5t-33.5 6.5t-28 10q-18 7 -39.5 18.5t-37.5 25t-16 25.5q0 9 6.5 27.5t15 37t14.5 28.5q8 14 25 31q26 25 66 50.5t83 42.5l-4 27q12 11 24 20t24.5 17t24.5 15q2 -81 5 -162t4 -162q47 -27 104 -27
q9 0 9 -8v-60q0 -8 -9 -8zM313 120q-6 39 -12.5 80.5t-13.5 82.5q-119 -40 -170 -105q27 -24 58.5 -36t66.5 -17q17 -2 35 -3zM167 436l-3 39l40 22q-37 6 -37 40q0 19 11 37t28 30t35 12q39 0 39 -37q0 -14 -7 -27l-19 5l1 4q0 5 -4 9t-9 4q-16 0 -28.5 -11.5t-18.5 -26.5
q17 -20 48 -20q9 0 21 1.5t28 4.5l-2 -38q-41 -10 -67.5 -21t-55.5 -27z" />
    <glyph glyph-name="uniFBA7" unicode="&#x6c1;" horiz-adv-x="464" arabic-form="final" 
d="M94 0l-26 23q16 18 39 40.5t48 44.5t46.5 39.5t34.5 26.5q26 18 34.5 13t15.5 -13q15 -15 41 -38t62.5 -41.5t80.5 -18.5q11 0 11 -10v-55q0 -11 -11 -11q-63 0 -108 18t-77 43.5t-55 45.5q-18 -10 -44.5 -29.5t-51.5 -40t-40 -37.5z" />
    <glyph glyph-name="uniFBA8" unicode="&#x6c1;" horiz-adv-x="275" arabic-form="initial" 
d="M0 0q-8 0 -8 8v60q0 8 8 8q46 0 93.5 10.5t83.5 26.5q-7 23 -16 50.5t-20 59.5q-10 26 -14.5 42.5t-4.5 24.5q0 22 17.5 45t47.5 39q2 -14 8 -42.5t15 -72.5q8 -33 11.5 -58.5t3.5 -43.5q0 -15 -9.5 -42.5t-26.5 -59.5q-91 -55 -189 -55zM130 -212q-20 2 -33 16t-13 33
q0 60 60 138l27 -17q-32 -44 -32 -81q0 -13 9.5 -22t31.5 -16q-9 -18 -25 -34.5t-25 -16.5z" />
    <glyph glyph-name="uniFBA9" unicode="&#x6c1;" horiz-adv-x="395" arabic-form="medial" 
d="M192 -219q-40 31 -69 68t-46 79t-21 87q-12 -6 -28.5 -10.5t-27.5 -4.5q-8 0 -8 8v60q0 8 8 8q35 0 47.5 6.5t18.5 20.5q8 16 17.5 24t21.5 8q19 0 32 -18q-11 -28 -11 -58q0 -48 21 -96.5t61 -90.5l5 30q11 56 37.5 96t66.5 60q36 18 84 18q11 0 11 -10v-55
q0 -11 -11 -11q-42 0 -71 -3.5t-45 -10.5q-10 -21 -14.5 -46.5t-6 -53.5t-1.5 -59z" />
    <glyph glyph-name="uniFBAB" unicode="&#x6be;" horiz-adv-x="490" arabic-form="final" 
d="M151 -9q-14 0 -34 5.5t-45 17t-55 27.5l9 34q21 -4 49 -6t62 -2q71 0 128.5 13.5t104.5 53.5l-8 51q-10 47 -15.5 81.5t-7.5 56.5q-37 -52 -61 -98.5t-34.5 -92t-8.5 -94.5q2 -41 17.5 -80.5t45.5 -65.5t75 -26q17 0 36 7t30 20q-8 29 -32.5 53.5t-57.5 39t-69 14.5
q-6 0 -23 -3t-44 -9l5 68q51 6 88.5 9.5t68.5 6t59.5 3.5t61.5 1q11 0 11 -10v-55q0 -11 -11 -11q-41 0 -70 -7q24 -10 40.5 -30.5t16.5 -40.5q0 -9 -7 -29.5t-15 -40t-13 -25.5q-13 -13 -36 -22t-48 -9q-42 0 -77.5 14.5t-61.5 44t-40 74t-14 104.5q1 76 24.5 144.5
t66.5 130t100 115.5l36 -10q2 -22 6 -51.5t11 -66.5q7 -34 9.5 -57.5t3.5 -37.5q2 -33 -16 -63.5t-49 -57t-68.5 -46.5t-75.5 -31t-68 -11z" />
    <glyph glyph-name="uniFBAC" unicode="&#x6be;" horiz-adv-x="508" arabic-form="initial" 
d="M405 -18q-65 8 -120.5 23.5t-100.5 38.5q-40 -23 -84 -33.5t-100 -10.5q-8 0 -8 8v61q0 7 8 7q35 0 64 3t51 10q-62 54 -62 118q0 31 11.5 63.5t31.5 59t45 38.5l23 65q85 -24 151.5 -72.5t103.5 -112.5q38 -65 38 -132q0 -22 -14.5 -59t-37.5 -75zM189 125
q26 20 38.5 46t12.5 60q0 29 -18.5 53.5t-40.5 24.5q-16 0 -34.5 -13t-34.5 -36q-8 -11 -13.5 -24.5t-10.5 -27.5q23 -25 48.5 -45.5t52.5 -37.5zM403 55q0 44 -17 92.5t-47 91.5q-15 21 -30.5 38.5t-32.5 31.5q22 -40 22 -81q0 -74 -50 -132q34 -15 73 -25t82 -16z" />
    <glyph glyph-name="uniFBAD" unicode="&#x6be;" horiz-adv-x="381" arabic-form="medial" 
d="M255 -204q-77 0 -126 46t-63 131l-38 -16l-10 44l-18 -1q-8 0 -8 8v60q0 8 8 8q17 1 33 1.5t32 1.5q21 186 188 344l36 -10q2 -22 6 -51.5t11 -66.5q7 -34 10 -57.5t3 -37.5q0 -44 -25 -78t-57 -53q41 4 75.5 5.5t74.5 1.5q11 0 11 -10v-55q0 -11 -11 -11q-41 0 -70 -7
q24 -10 40.5 -30.5t16.5 -40.5q0 -9 -7 -29.5t-15 -40t-13 -25.5q-13 -13 -36 -22t-48 -9zM264 -134q17 0 36 7t30 20q-8 29 -32.5 53.5t-57.5 39t-69 14.5q-4 0 -14 -1.5t-25 -4.5q16 -64 50 -96t82 -32zM126 75q36 4 71.5 19.5t63.5 39.5l-8 51q-10 47 -15.5 81.5
t-7.5 56.5q-55 -78 -77.5 -135t-26.5 -113z" />
    <glyph glyph-name="uniFBAF" unicode="&#x6d2;" horiz-adv-x="560" arabic-form="final" 
d="M300 -204q-64 0 -125.5 9.5t-102.5 24.5t-41 26q0 6 3 18.5t7 26.5t8 25t7 13q52 50 121 80t165 43.5t229 13.5q11 0 11 -11v-55q0 -10 -11 -10q-67 0 -136.5 -3.5t-130.5 -12.5t-104 -24q-32 -11 -62.5 -25.5t-58.5 -33.5q51 -14 108 -21.5t120 -7.5q65 0 130 6t130 18
q15 -18 15 -35q0 -20 -18.5 -33.5t-44.5 -18.5q-26 -4 -59.5 -7t-73 -4.5t-86.5 -1.5z" />
    <glyph glyph-name="uniFBB1" unicode="&#x6d3;" horiz-adv-x="560" arabic-form="final" 
d="M300 -204q-64 0 -125.5 9.5t-102.5 24.5t-41 26q0 6 3 18.5t7 26.5t8 25t7 13q52 50 121 80t165 43.5t229 13.5q11 0 11 -11v-55q0 -10 -11 -10q-67 0 -136.5 -3.5t-130.5 -12.5t-104 -24q-32 -11 -62.5 -25.5t-58.5 -33.5q51 -14 108 -21.5t120 -7.5q65 0 130 6t130 18
q15 -18 15 -35q0 -20 -18.5 -33.5t-44.5 -18.5q-26 -4 -59.5 -7t-73 -4.5t-86.5 -1.5zM157 126l-3 39l40 22q-37 6 -37 40q0 19 11 37t28 30t35 12q39 0 39 -37q0 -14 -7 -27l-19 5l1 4q0 5 -4 9t-9 4q-16 0 -28.5 -11.5t-18.5 -26.5q17 -20 48 -20q9 0 21 1.5t28 4.5
l-2 -38q-41 -10 -67.5 -21t-55.5 -27z" />
    </font>
</defs>
</svg>
