<?xml version="1.0" standalone="no"?>
<!DOCTYPE svg PUBLIC "-//W3C//DTD SVG 1.1//EN" "http://www.w3.org/Graphics/SVG/1.1/DTD/svg11.dtd" >
<svg>
<metadata>
Created by FontForge 20110222 at Mon Mar  7 13:22:56 2011
 By www-data
Unicode Fonts for Ancient Scripts; George Douros; 2009
</metadata>
<defs>
<font id="Analecta" horiz-adv-x="1387" >
  <font-face 
    font-family="Analecta"
    font-weight="400"
    font-stretch="normal"
    units-per-em="2048"
    panose-1="4 3 7 6 5 8 2 2 6 2"
    ascent="1638"
    descent="-410"
    x-height="893"
    cap-height="1289"
    bbox="-36 -403 2267 1622"
    underline-thickness="20"
    underline-position="-123"
    unicode-range="U+0020-20AC"
  />
    <missing-glyph />
    <glyph glyph-name="space" unicode=" " horiz-adv-x="704" 
 />
    <glyph glyph-name="exclam" unicode="!" horiz-adv-x="477" 
d="M292 1236q0 4 -2 -20l-50 -603q-4 -59 -20 -134q-22 -107 -46 -107q-7 0 -15 10q-39 48 -49 171l-49 650q-1 13 -1 19q0 45 38 80.5t84 35.5q43 0 76.5 -30t33.5 -72zM248 123q0 -35 -25 -63.5t-60 -28.5t-61.5 26t-26.5 61t26.5 61t61.5 26q85 0 85 -82z" />
    <glyph glyph-name="quotedbl" unicode="&#x22;" horiz-adv-x="812" 
d="M591 1363q0 -43 -86 -225q-43 -89 -78 -89q-42 0 -42 93q0 74 22 136q18 51 51 97q43 61 81 61q52 0 52 -73zM273 1363q0 -43 -86 -225q-43 -89 -78 -89q-41 0 -41 93q0 74 21 136q18 51 51 97q43 61 82 61q51 0 51 -73z" />
    <glyph glyph-name="numbersign" unicode="#" horiz-adv-x="1337" 
d="M1123 244q0 -29 -43 -29q-52 0 -125 25l-120 46q-19 -48 -60 -90q-48 -49 -92 -49q-32 0 -32 45q0 44 32 152q-61 24 -180 80q-28 -113 -32 -125q-23 -62 -72.5 -107t-88.5 -45q-27 0 -27 45q0 56 84 297q-70 34 -87 46q-49 34 -49 77q0 21 18 21q10 0 157 -52
q44 91 91 215q-121 52 -158 72q-108 61 -108 114q0 21 20 21q15 0 295 -107q44 83 50 92q38 53 82 53q21 0 21 -18q0 -17 -53 -155l225 -63l98 190q8 15 34 30.5t43 15.5q25 0 25 -18q0 -3 -91 -248q53 -22 94 -63q49 -48 49 -97q0 -26 -37 -26q-67 0 -156 32l-54 -188
q90 -24 112 -33q56 -22 94 -67q41 -48 41 -89zM810 664q-70 29 -211 87q-5 -14 -66 -218q17 -10 200 -59z" />
    <glyph glyph-name="dollar" unicode="$" horiz-adv-x="1190" 
d="M981 335q0 -358 -406 -375v-280h-48v280q-176 2 -292 109q-119 110 -119 285q0 74 95 74q51 0 80 -63q95 -205 236 -248v351q-81 34 -236 114q-86 53 -141 139q-57 92 -57 189q0 167 137 273q121 93 297 105v197h48v-196q90 -1 177 -47t135 -118.5t48 -118.5
q0 -75 -97 -75q-35 0 -65 25q-3 3 -49 51q-72 78 -149 120v-400q27 -13 55 -26q157 -72 232 -136q119 -100 119 -229zM527 751v397q-37 13 -70 13q-65 0 -120 -43q-59 -47 -59 -110q0 -120 249 -257zM764 271q0 85 -189 175v-339q16 -2 32 -2q64 0 110.5 50.5t46.5 115.5z
" />
    <glyph glyph-name="percent" unicode="%" horiz-adv-x="1831" 
d="M1785 1401q0 -38 -42 -38q-20 0 -60.5 9.5t-61.5 9.5q-86 0 -148 -64q-19 -19 -249 -301l-564 -687q-97 -121 -293 -360q-36 -39 -72 -79q-43 -48 -62 -87q-12 -27 -25 -55q-17 -27 -51 -27q-13 0 -32.5 13t-19.5 26q0 18 36 61l1372 1664q37 45 117 45q57 0 104 -36
q51 -39 51 -94zM737 1023q0 -85 -22 -159q-34 -117 -126 -196q-98 -85 -216 -85q-170 0 -275 146q-95 131 -95 307q0 170 95 299q105 142 270 142q121 0 223 -89q146 -128 146 -365zM1631 60q0 -85 -22 -159q-34 -117 -126 -197q-98 -84 -216 -84q-170 0 -275 145
q-95 131 -95 308q0 169 95 298q105 143 270 143q121 0 223 -90q146 -128 146 -364zM588 948q0 150 -81 288t-178 138q-89 0 -139 -99q-41 -79 -41 -174q0 -129 62 -253q75 -150 190 -150q56 0 107 43q80 68 80 207zM1482 -16q0 151 -81 288.5t-178 137.5q-89 0 -139 -98
q-41 -79 -41 -175q0 -128 62 -252q75 -150 190 -150q56 0 108 44q79 67 79 205z" />
    <glyph glyph-name="ampersand" unicode="&#x26;" horiz-adv-x="1553" 
d="M1551 386q0 -28 -34 -45q-28 -14 -61 -14q-30 0 -60 26.5t-34 26.5h-337v-659q0 -45 -42 -84.5t-91 -39.5q-88 0 -88 124v659h-546q-24 0 -24 -27q0 -41 35 -104q99 -178 287 -178q52 0 106 20q6 2 9 2q38 0 38 -56q0 -27 -14 -35q-48 -27 -148 -27q-200 0 -356 134
q-160 137 -160 322q0 201 158 337q155 132 374 132q70 0 148 -18q90 -21 164 -62q105 -58 105 -127q0 -104 -58 -104q-39 0 -67 40q-21 36 -41 72q-69 102 -247 102q-130 0 -226.5 -89.5t-96.5 -209.5q0 -26 23 -26h1099q55 0 113 -22q72 -27 72 -70z" />
    <glyph glyph-name="quotesingle" unicode="'" horiz-adv-x="494" 
d="M273 1363q0 -43 -86 -225q-43 -89 -78 -89q-41 0 -41 93q0 74 21 136q18 51 51 97q43 61 82 61q51 0 51 -73z" />
    <glyph glyph-name="parenleft" unicode="(" horiz-adv-x="902" 
d="M669 1464q0 -44 -51 -44q-17 0 -49 3.5t-48 3.5q-86 0 -165 -67q-82 -69 -126 -217q-35 -121 -35 -253q0 -224 15 -345q23 -193 94 -330q103 -200 213 -244q41 -14 83 -29q58 -24 58 -53q0 -61 -85 -61q-163 0 -331 154q-113 104 -167 327q-41 170 -41 372q0 281 124 529
q151 305 404 305q107 0 107 -51z" />
    <glyph glyph-name="parenright" unicode=")" horiz-adv-x="902" 
d="M669 662q0 -281 -124 -529q-152 -305 -404 -305q-107 0 -107 51q0 44 51 44q16 0 48 -3.5t49 -3.5q85 0 166 68t124 216q36 121 36 253q0 224 -15 345q-24 193 -94 330q-103 200 -213 244q-42 14 -84 29q-57 24 -57 53q0 61 85 61q163 0 331 -154q113 -104 167 -327
q41 -170 41 -372z" />
    <glyph glyph-name="asterisk" unicode="*" horiz-adv-x="937" 
d="M707 1164q0 -30 -62 -65l-133 -77l142 -83q47 -27 47 -58q0 -16 -12 -37q-14 -25 -40 -25q-21 0 -54 18l-143 83v-165q0 -78 -65 -78q-53 0 -53 78v166l-143 -83q-31 -18 -51 -18q-29 0 -49 35q-8 14 -8 27q0 30 49 58l145 83l-130 75q-49 29 -49 90q0 14 6 24
q9 15 29 15q25 0 69 -25l134 -78v150q0 28 25 61t52 33q40 0 40 -90v-154l130 74q17 10 47 10q77 0 77 -44z" />
    <glyph glyph-name="plus" unicode="+" horiz-adv-x="1334" 
d="M1120 529q0 -49 -89 -49h-304v-296q0 -67 -82 -67q-63 0 -63 61v302h-283q-68 0 -68 82q0 62 62 62h289v263q0 39 31 79t65 40q49 0 49 -89v-293h276q38 0 77.5 -30.5t39.5 -64.5z" />
    <glyph glyph-name="comma" unicode="," horiz-adv-x="594" 
d="M361 81q0 -87 -88.5 -166.5t-177.5 -79.5q-52 0 -52 35q0 18 66.5 44.5t66.5 79.5q0 10 -18 18q-59 26 -59 98q0 54 46 90q43 32 98 32q59 0 90 -48q28 -41 28 -103z" />
    <glyph glyph-name="hyphen" unicode="-" horiz-adv-x="1174" 
d="M920 529q0 -49 -85 -49h-536q-68 0 -68 82q0 62 62 62h510q36 0 76.5 -30t40.5 -65z" />
    <glyph glyph-name="period" unicode="." horiz-adv-x="595" 
d="M359 106q0 -20 -3 -32q-10 -37 -69 -62q-50 -22 -95 -22q-40 0 -69 46q-26 40 -26 82q0 52 56 86q48 28 103 28q46 0 76 -41q27 -38 27 -85z" />
    <glyph glyph-name="slash" unicode="/" horiz-adv-x="1373" 
d="M1140 1510q0 -15 -20 -50l-861 -1491q-124 -215 -186 -215q-15 0 -28 26q-11 22 -11 39q0 38 39 106l849 1472q76 132 179 132q39 0 39 -19z" />
    <glyph glyph-name="zero" unicode="0" 
d="M1226 622q0 -125 -32 -233q-50 -170 -183 -286q-142 -123 -312 -123q-174 0 -303 110q-235 199 -235 550q0 125 36 241q54 171 183 282q138 120 309 120q176 0 325 -129q212 -185 212 -532zM1034 510q0 222 -126.5 428t-278.5 206q-74 0 -141 -55q-139 -114 -139 -353
q0 -221 117.5 -410t275.5 -189q77 0 152 53q140 100 140 320z" />
    <glyph glyph-name="one" unicode="1" 
d="M913 213q0 -66 -56 -142q-59 -80 -123 -80q-25 0 -50 22q-42 37 -42 145v924q-186 -120 -196 -126q-143 -85 -202 -85q-34 0 -34 31q0 34 34 61q31 20 62 39l381 262q41 28 79 28q59 0 100 -29q47 -33 47 -90v-960z" />
    <glyph glyph-name="two" unicode="2" 
d="M1342 -93q0 -36 -30 -65.5t-66 -29.5q-14 0 -25 41q-5 26 -11 53q-28 94 -254 94h-747q-107 0 -107 94q0 121 71 177l565 446q114 91 114 224q0 88 -66.5 153t-154.5 65q-111 0 -187 -142q-66 -127 -84 -253q-8 -50 -13 -70q-13 -45 -36 -58q-31 -19 -79 -19
q-83 0 -111 45q-20 33 -20 121q0 197 136 329t334 132q191 0 294 -95q151 -138 151 -309q0 -103 -44 -206q-46 -108 -122 -171l-411 -340h524q130 0 238 -45q141 -60 141 -171z" />
    <glyph glyph-name="three" unicode="3" 
d="M1260 372q0 -260 -143 -355q-186 -123 -424 -123q-179 0 -351 75q-215 94 -215 248q0 98 115 98q56 0 178 -79q136 -88 189 -101q50 -12 108 -12q156 0 264 94q113 99 113 253q0 103 -69 166q-58 53 -163 63h-180q-157 0 -157 102q0 62 43 104l297 289h-342
q-279 0 -279 127q0 66 60 66q41 0 61 -14q12 -9 40 -48q44 -61 232 -61h371q79 0 107 -45q18 -29 18 -57q0 -47 -33 -80l-312 -308h141q167 0 254 -122q77 -107 77 -280z" />
    <glyph glyph-name="four" unicode="4" 
d="M1368 347q0 -117 -121 -117q-28 0 -70 11v-341q0 -68 -58.5 -144.5t-118.5 -76.5q-26 0 -52 22q-41 35 -41 144v428q-21 0 -62.5 2.5t-62.5 2.5q-87 0 -243 -27q-150 -26 -498 -164q-22 2 -22 20q0 21 96 117q61 59 121.5 120.5t154.5 204.5q87 133 180 327
q77 171 155 341q27 59 44 88q34 59 61 70q31 12 71 12q84 0 84 -96q0 -76 -74 -226q-23 -51 -70 -153q-142 -297 -405 -552q202 78 470 95v188q0 56 44 92.5t100 36.5q54 0 90 -32t36 -84v-186q71 0 124 -26q67 -33 67 -97z" />
    <glyph glyph-name="five" unicode="5" 
d="M1348 1326q0 -50 -65.5 -88.5t-214.5 -38.5h-513q-83 0 -83 -257q0 -50 3 -78q85 12 152 12q277 0 389 -196q57 -100 57 -210q0 -213 -304 -476q-238 -205 -691 -361q-92 -32 -103 -32t-11 27q0 18 127 87q721 394 721 747q0 72 -24 126q-32 71 -117 119q-80 44 -162 44
q-55 0 -131.5 -34.5t-106.5 -34.5t-43 40q-20 66 -20 229q0 284 75 311q22 8 66 8h600q196 0 235 61q25 37 40 48q21 15 61 15q26 0 44.5 -20.5t18.5 -47.5z" />
    <glyph glyph-name="six" unicode="6" 
d="M1182 924q0 -91 -139 -91q-77 0 -123 40q-27 24 -31.5 106t-51.5 119.5t-127 37.5q-240 0 -239 -204l4 -431l212 64q125 34 217 34q266 0 266 -281q0 -339 -572 -339q-279 0 -347 49q-46 33 -46 70v877q0 76 33 124q26 38 96 86q113 79 352 79q123 0 239.5 -25.5
t186.5 -110.5t70 -204zM919 269q0 100 -59.5 160.5t-158.5 60.5q-78 0 -134 -39q-64 -44 -64 -119v-197q0 -54 129 -54q105 0 186 41q101 52 101 147z" />
    <glyph glyph-name="seven" unicode="7" 
d="M1194 1162q0 -48 -32 -80l-458 -996q-8 -18 -51 -57q-32 -29 -67 -29q-36 0 -54.5 35t-18.5 131q0 38 13 70l381 941h-487q-227 0 -227 100q0 38 33.5 74t70.5 36q64 0 99 -61.5t251 -61.5h423q80 0 107 -45q17 -28 17 -57z" />
    <glyph glyph-name="eight" unicode="8" 
d="M1169 318q0 -255 -303 -316q-124 -25 -244 -25q-168 0 -240 53q-134 98 -134 271q0 160 221 271q-251 21 -251 324q0 255 302 317q128 26 244 26q167 0 238 -53q61 -44 100.5 -118.5t39.5 -149.5q0 -158 -208 -253q235 -42 235 -347zM891 921q0 56 -47 108t-103 63
q-36 8 -103 8q-169 0 -169 -153q0 -202 183 -202q84 0 156 46q83 52 83 130zM918 269q0 201 -184 201q-84 0 -156 -45q-83 -52 -83 -131q0 -56 47 -107.5t103 -63.5q36 -7 103 -7q170 0 170 153z" />
    <glyph glyph-name="nine" unicode="9" 
d="M1183 265q0 -76 -33 -124q-26 -37 -97 -86q-113 -78 -352 -78q-127 0 -239 24q-117 25 -187.5 110.5t-70.5 203.5q0 92 120 92q118 0 152 -49q15 -22 23 -107q7 -75 50 -108q51 -39 129 -39q239 0 238 206l-4 428q-47 -12 -140 -39q-193 -59 -289 -59q-266 0 -266 281
q0 339 572 339q280 0 347 -47q47 -34 47 -70v-878zM884 908v197q0 55 -129 55q-105 0 -186 -41q-101 -52 -101 -147q0 -100 59 -160.5t159 -60.5q78 0 134 39q64 43 64 118z" />
    <glyph glyph-name="colon" unicode=":" horiz-adv-x="538" 
d="M359 911q0 -20 -3 -32q-10 -37 -69 -63q-50 -21 -95 -21q-40 0 -69 45q-26 41 -26 83q0 52 56 85q48 29 103 29q46 0 76 -41q27 -38 27 -85zM359 106q0 -20 -3 -32q-10 -37 -69 -62q-50 -22 -95 -22q-40 0 -69 46q-26 40 -26 82q0 52 56 86q48 28 103 28q46 0 76 -41
q27 -38 27 -85z" />
    <glyph glyph-name="semicolon" unicode=";" horiz-adv-x="529" 
d="M359 911q0 -20 -3 -32q-10 -37 -69 -63q-50 -21 -95 -21q-40 0 -69 45q-26 41 -26 83q0 52 56 85q48 29 103 29q46 0 76 -41q27 -38 27 -85zM361 81q0 -87 -88.5 -166.5t-177.5 -79.5q-52 0 -52 35q0 18 66.5 44.5t66.5 79.5q0 10 -18 18q-59 26 -59 98q0 54 46 90
q43 32 98 32q59 0 90 -48q28 -41 28 -103z" />
    <glyph glyph-name="less" unicode="&#x3c;" horiz-adv-x="1334" 
d="M1019 175q0 -41 -66 -41q-44 0 -95 33l-560 360q-24 15 -24 61q0 64 43 92l560 361q29 19 42 19q30 0 51.5 -24.5t21.5 -54.5q0 -33 -19 -45l-540 -342l547 -345q39 -25 39 -74z" />
    <glyph glyph-name="equal" unicode="=" horiz-adv-x="1334" 
d="M1120 789q0 -49 -89 -49h-732q-68 0 -68 82q0 62 62 62h710q38 0 77.5 -30.5t39.5 -64.5zM1120 389q0 -49 -89 -49h-732q-68 0 -68 82q0 62 62 62h710q38 0 77.5 -30.5t39.5 -64.5z" />
    <glyph glyph-name="greater" unicode="&#x3e;" horiz-adv-x="1334" 
d="M1019 606q0 -64 -43 -92l-560 -361q-29 -19 -42 -19q-30 0 -51.5 24.5t-21.5 54.5q0 33 19 45l540 342l-547 345q-39 25 -39 74q0 41 66 41q44 0 95 -33l560 -360q24 -15 24 -61z" />
    <glyph glyph-name="question" unicode="?" horiz-adv-x="1071" 
d="M862 1031q0 -35 -11 -101q-16 -101 -39.5 -145.5t-97.5 -115.5q-47 -45 -113 -130q-14 -52 -28 -105q-21 -83 -41 -83q-36 0 -57 38q-18 31 -18 71q0 62 43 145q27 53 85.5 114.5t75.5 91.5q34 59 34 145q0 103 -58 186q-65 92 -164 92q-110 0 -172 -132
q-50 -105 -50 -229q0 -50 -30 -69q-16 -9 -42 -9q-24 0 -49.5 22t-25.5 46q0 186 86 293q146 184 331 184q138 0 222 -70q119 -98 119 -239zM606 78q0 -36 -27.5 -61t-63.5 -25q-37 0 -61.5 26.5t-24.5 62.5t27 62.5t63 26.5t61.5 -27.5t25.5 -64.5z" />
    <glyph glyph-name="at" unicode="@" horiz-adv-x="1545" 
d="M1545 1143q0 -36 -42 -56q-34 -17 -74 -17q-37 0 -75 39t-52 39h-294v-941q89 -71 181 -131q85 -55 85 -70q0 -11 -29 -21q-25 -8 -38 -8q-76 0 -199 58v-91q0 -50 -39 -94.5t-89 -44.5q-84 0 -84 139v212q-70 45 -149 102l-493 -233q-44 -20 -67 -20q-63 0 -63 64
q0 33 30 78l305 468q-101 223 -101 281q0 78 95 78q58 0 89 -25q25 -20 53 -76q26 -59 82 -175q79 -147 219 -296v746h-312q-35 0 -90 -25t-73 -25q-62 0 -62 59q0 53 54 81q44 24 101 24h894q72 0 144 -26q93 -35 93 -93zM524 390q-52 52 -100 118l-179 -272z" />
    <glyph glyph-name="A" unicode="A" horiz-adv-x="1636" 
d="M1680 -11q0 -21 -71 -21q-224 0 -745 379l-667 -315q-55 -26 -79 -26q-67 0 -67 65q0 40 36 94l414 633q-137 309 -137 378q0 83 108 83q39 0 60 -4q61 -14 111 -118q35 -79 110 -234q96 -187 278 -379q262 -277 543 -456q106 -68 106 -79zM730 498q-86 79 -165 195
l-296 -448z" />
    <glyph glyph-name="B" unicode="B" horiz-adv-x="1261" 
d="M1051 114q0 -114 -117 -114h-856q-15 0 -30.5 15t-15.5 31v1139q0 77 109 77h369q295 0 384 -51q94 -54 94 -201q0 -164 -333 -308q-54 -24 -138 -51l505 -462q29 -26 29 -75zM658 972q0 30 -6 57q-12 60 -106 102q-79 35 -152 35h-14q-77 0 -77 -61v-398q0 -17 26 -17
q73 0 201 96t128 186zM729 111q0 6 -7 12l-419 375v-352q0 -52 47 -52h356q23 0 23 17z" />
    <glyph glyph-name="C" unicode="C" horiz-adv-x="1553" 
d="M1409 475q0 -228 -237 -379q-209 -133 -450 -133q-282 0 -483 158q-217 171 -217 446q0 295 198 509q202 219 495 219q142 0 338 -74q240 -91 240 -209q0 -26 -65 -48q-47 -17 -88 -21l-7 3q-3 5 -9 14q-81 118 -170 168q-94 54 -232 54q-210 0 -330 -184
q-105 -159 -105 -379q0 -228 121 -380q130 -164 352 -164q334 0 422 258q25 74 25 137q0 55 49 55q19 0 54 -6.5t54 -6.5q45 0 45 -37z" />
    <glyph glyph-name="D" unicode="D" horiz-adv-x="1448" 
d="M1253 610q0 -114 -65 -242q-88 -174 -267 -273q-171 -95 -373 -95h-470q-16 0 -31 15t-15 31v1140q0 76 109 76h258q333 0 436 -42q182 -74 300 -245t118 -365zM1005 615q0 148 -73 288q-79 151 -205 210q-115 53 -351 53q-72 0 -72 -61v-959q0 -52 46 -52h167
q221 0 357 151q131 145 131 370z" />
    <glyph glyph-name="E" unicode="E" horiz-adv-x="1222" 
d="M1129 54q0 -46 -38 -66q-25 1 -98 7q-62 5 -99 5h-775q-36 0 -60 33q-23 30 -23 67v1062q0 37 23.5 68.5t59.5 31.5h775q37 0 99 5q74 6 98 7q38 -20 38 -66q0 -50 -36 -103q-40 -58 -87 -58q-31 0 -142 35q-146 46 -319 46q-220 0 -229 -11.5t-9 -27.5v-364
q0 -59 101 -59h376q60 0 60 -32q0 -104 -32 -104t-92 17.5t-92 17.5h-253q-68 0 -68 -61v-331q0 -16 9 -27.5t229 -11.5q172 0 319 46q112 34 152 34q47 0 82 -58q31 -51 31 -102z" />
    <glyph glyph-name="F" unicode="F" horiz-adv-x="1238" 
d="M1326 1143q0 -36 -41 -56q-33 -16 -73 -16q-37 0 -76 38.5t-52 38.5h-549v-628h272q73 0 143 -26q93 -34 93 -93q0 -35 -42 -56q-33 -16 -73 -16q-37 0 -76.5 39t-52.5 39h-264v-249q0 -61 -53.5 -114t-111.5 -53q-107 0 -107 167v990h-72q-51 0 -108 50.5t-57 100.5
q0 44 49 44q9 0 88.5 -40.5t137.5 -40.5h790q72 0 143 -26q92 -35 92 -93z" />
    <glyph glyph-name="G" unicode="G" horiz-adv-x="1336" 
d="M1206 202q-210 -222 -468 -222q-283 0 -490 186q-214 192 -214 471q0 292 207 473q198 173 494 173q205 0 321 -72q105 -66 105 -97q0 -43 -27.5 -73t-70.5 -30q-50 0 -143 80t-182 80q-199 0 -334 -166q-127 -156 -127 -359q0 -208 136 -376q145 -179 348 -179
q120 0 228 63q-17 110 -17 208q0 162 60 243q45 61 83 61q49 0 49 -95q0 -32 -2.5 -96.5t-2.5 -97.5q0 -97 47 -175z" />
    <glyph glyph-name="H" unicode="H" horiz-adv-x="1406" 
d="M1186 158q0 -66 -60 -123t-126 -57q-89 0 -89 99q0 13 2.5 40t2.5 41v527h-613v-527q0 -59 -33 -103q-36 -49 -93 -49q-60 0 -102.5 45.5t-42.5 106.5v1004q0 60 43 95q41 32 102 32q48 0 87 -34t39 -82v-394h613v383q0 56 45 93q42 34 99 34q53 0 89.5 -31.5t36.5 -84.5
v-1015z" />
    <glyph glyph-name="I" unicode="I" horiz-adv-x="523" 
d="M303 213q0 -66 -55 -142q-59 -80 -123 -80q-27 0 -52 22q-41 37 -41 134v1015q0 56 46 93q42 34 99 34q53 0 89.5 -31.5t36.5 -84.5v-960z" />
    <glyph glyph-name="J" unicode="J" horiz-adv-x="1214" 
d="M996 224q0 -158 -180 -248q-145 -74 -320 -74q-112 0 -215 36q-128 45 -165 127q-26 59 -26 96q0 50 30 84.5t80 34.5q47 0 81 -32q31 -29 42 -111.5t50 -114t91 -31.5q99 0 180.5 81t81.5 179v894q0 56 44 92t101 36q52 0 88.5 -31t36.5 -83v-935z" />
    <glyph glyph-name="K" unicode="K" horiz-adv-x="1499" 
d="M1328 78q0 -47 -85 -72q-60 -17 -124 -17q-140 0 -185 36l-631 511v-378q0 -68 -77 -118q-69 -46 -140 -46q-54 0 -54 125v1011q0 56 46 93q42 34 99 34q53 0 89.5 -31t36.5 -83v-468l683 543q105 84 171 84q68 0 68 -87q0 -69 -23.5 -91.5t-36.5 -22.5q-11 0 -42.5 20
t-50.5 20q-25 0 -55 -25l-438 -358q-21 -17 -21 -29t13 -22l679 -536q78 -62 78 -93z" />
    <glyph glyph-name="L" unicode="L" horiz-adv-x="1251" 
d="M1129 57q0 -22 -13 -43q-14 -24 -34 -24q-12 0 -53 5q-56 8 -135 8h-775q-37 0 -61 33q-22 30 -22 68v1176q0 79 54 79q48 0 113 -67q62 -63 83 -112t21 -136v-838q0 -17 9.5 -29t227.5 -12q143 0 299 46q114 34 145 34q47 0 95 -72q46 -66 46 -116z" />
    <glyph glyph-name="M" unicode="M" horiz-adv-x="1720" 
d="M1495 158q0 -65 -85 -119q-78 -48 -146 -48q-27 0 -33 19t-6 148v770l-411 -581q-19 -26 -44 -26q-24 0 -40 26l-427 675v-833q0 -65 -86 -123q-80 -54 -149 -54q-25 0 -32 21q-5 17 -5 79l1 1082q0 55 46 92q42 35 99 35q53 0 89.5 -32t36.5 -84v-32l455 -718l467 656
v51q0 56 45 93q42 34 99 34q53 0 89.5 -31.5t36.5 -84.5v-1015z" />
    <glyph glyph-name="N" unicode="N" horiz-adv-x="1660" 
d="M1446 69q0 -63 -73 -63q-53 0 -105 43q-41 41 -82 83l-883 890v-876q0 -64 -87 -122q-80 -53 -148 -53q-24 0 -32 20q-5 13 -5 78l1 1125q0 55 46 92q42 35 99 35q53 0 89.5 -32t36.5 -84v-50l870 -871v845q0 66 70 128q67 61 135 61t68 -106v-1143z" />
    <glyph glyph-name="O" unicode="O" horiz-adv-x="1656" 
d="M1460 610q0 -112 -65 -241q-87 -175 -275 -284q-182 -105 -383 -105q-282 0 -489 186q-214 192 -214 471q0 292 207 473q197 173 494 173q292 0 504 -189q221 -196 221 -484zM1213 614q0 206 -132 376q-143 181 -344 181q-198 0 -333 -166q-127 -156 -127 -359
q0 -208 136 -376q145 -179 348 -179q202 0 332 164q120 152 120 359z" />
    <glyph glyph-name="P" unicode="P" horiz-adv-x="1152" 
d="M997 928q0 -307 -298 -307q-119 0 -255 49q-121 45 -141 75v-808q0 -52 -14 -71q-17 -26 -69 -26q-58 0 -120 45q-68 47 -68 103v1160q0 39 45 71q67 49 352 49q568 0 568 -340zM747 978q0 97 -106 148q-82 40 -190 40q-122 0 -122 -55v-195q0 -75 65 -119
q57 -39 135 -39q99 0 158.5 60.5t59.5 159.5z" />
    <glyph glyph-name="Q" unicode="Q" horiz-adv-x="1685" 
d="M1460 610q0 -147 -90 -288q-83 -129 -214 -215l169 -139q5 -11 5 -28q0 -32 -15 -75q-18 -54 -43 -54q-50 0 -99 42q-6 10 -22 28l-164 143q-125 -44 -250 -44q-282 0 -489 186q-214 192 -214 471q0 292 207 473q197 173 494 173q292 0 504 -189q221 -196 221 -484z
M1213 614q0 206 -132 376q-143 181 -344 181q-198 0 -333 -166q-127 -156 -127 -359q0 -208 136 -376q145 -179 348 -179q65 0 127 20l-110 95q-25 22 -25 55q0 49 74 49q66 0 119 -31q32 -19 98 -78q169 156 169 413z" />
    <glyph glyph-name="R" unicode="R" horiz-adv-x="1340" 
d="M1436 -171q0 -27 -47 -54q-43 -23 -73 -23q-39 0 -103 24q-281 107 -486 270q-260 205 -314 443q-93 1 -93 -63v-326q0 -38 9 -113t9 -113q0 -60 -83 -60t-135 48.5t-52 132.5q0 10 1 29t1 29v1039q0 138 138 138q48 0 145.5 3.5t146.5 3.5q208 0 378 -100
q200 -117 200 -310q0 -132 -117 -227q-98 -81 -240 -109q91 -214 268 -365q134 -115 385 -243q62 -31 62 -54zM787 870q0 115 -112 179q-92 52 -216 52q-80 0 -104 -20q-28 -24 -28 -107v-246q0 -111 208 -111q83 0 167.5 85t84.5 168z" />
    <glyph glyph-name="S" unicode="S" horiz-adv-x="1190" 
d="M981 335q0 -375 -446 -375q-179 0 -297 107q-122 110 -122 287q0 74 95 74q51 0 80 -63q120 -260 316 -260q64 0 110.5 50.5t46.5 115.5q0 87 -194 177q-95 40 -279 134q-86 53 -141 139q-57 92 -57 189q0 178 154 285q136 94 322 94q91 0 180 -46t139 -121
q47 -71 47 -117q0 -75 -97 -75q-35 0 -65 25q-3 3 -49 51q-144 155 -267 155q-65 0 -120 -43q-59 -47 -59 -110q0 -147 352 -308q157 -72 232 -136q119 -100 119 -229z" />
    <glyph glyph-name="T" unicode="T" horiz-adv-x="1879" 
d="M1879 1143q0 -36 -42 -56q-33 -16 -73 -16q-37 0 -75.5 38.5t-51.5 38.5h-550v-990q0 -60 -53 -113.5t-113 -53.5q-105 0 -105 167v990h-562q-35 0 -90 -24.5t-73 -24.5q-62 0 -62 58q0 52 53 81q44 24 102 24h1459q72 0 143 -26q93 -35 93 -93z" />
    <glyph glyph-name="U" unicode="U" horiz-adv-x="1232" 
d="M1013 1173q0 -64 -3 -519q0 -124 -3 -374q-4 -159 -139 -235q-108 -62 -281 -62q-154 0 -300 51q-183 64 -232 178q-26 61 -26 162l3 788q0 60 43 95q40 32 102 32q48 0 87 -34t39 -82v-753q0 -127 40 -215q53 -119 164 -119q65 0 130.5 37.5t89.5 89.5q20 44 20 123
q0 27 -2.5 80t-2.5 80v666q0 56 45 93q43 34 100 34q53 0 89.5 -31.5t36.5 -84.5z" />
    <glyph glyph-name="V" unicode="V" horiz-adv-x="1444" 
d="M1547 1269q0 -28 -12 -55q-14 -34 -38 -34q-14 0 -55 28.5t-55 28.5q-22 0 -36 -32l-464 -1042q-26 -65 -83 -168q-24 -27 -60 -27q-50 0 -82 42q-11 13 -46 84l-584 1175q-7 13 -7 28q0 76 135 76q62 0 73 -22l591 -1168l482 1059q16 36 86 75q42 23 82 23q73 0 73 -71z
" />
    <glyph glyph-name="W" unicode="W" horiz-adv-x="2092" 
d="M2241 1269q0 -28 -11 -55q-15 -34 -38 -34q-14 0 -55 28.5t-55 28.5q-23 0 -37 -32l-464 -1042q-26 -65 -84 -168q-23 -27 -60 -27q-50 0 -82 42q-12 15 -46 84l-238 482l-184 -413q-26 -65 -83 -168q-24 -27 -60 -27q-50 0 -82 42q-11 14 -46 84l-584 1175q-7 13 -7 28
q0 76 135 76q62 0 73 -22l591 -1168l212 465l-310 621q-6 13 -6 28q0 76 133 76q63 0 75 -22l226 -446l152 337q16 36 86 75q42 23 82 23q73 0 73 -71q0 -28 -12 -55q-14 -34 -38 -34q-14 0 -55 28.5t-55 28.5q-22 0 -36 -32l-165 -367l332 -655l482 1059q17 36 86 75
q42 23 82 23q73 0 73 -71z" />
    <glyph glyph-name="X" unicode="X" horiz-adv-x="1717" 
d="M1538 68q0 -37 -64 -59q-49 -16 -96 -16q-121 0 -192 70l-493 499l-530 -525q-17 -16 -32 -16q-42 0 -42 68q0 63 37 100l470 470l-387 388q-7 8 -98 58q-74 42 -74 68q0 36 82 72q51 23 108 23q154 0 278 -125l287 -290l344 346q85 86 178 86q52 0 93 -28q46 -31 46 -81
q0 -25 -15 -49q-17 -27 -41 -27q-14 0 -40 9t-40 9q-69 0 -157 -88l-272 -271l521 -526q129 -131 129 -165z" />
    <glyph glyph-name="Y" unicode="Y" horiz-adv-x="1444" 
d="M1556 1269q0 -36 -18.5 -63t-40.5 -27q-19 0 -51.5 16.5t-50.5 16.5q-23 0 -44 -26l-455 -549v-637q0 -112 -65 -112q-44 0 -109 52q-58 46 -83 91q-15 27 -15 58v498l-592 682q-11 12 -11 26q0 22 19 43q34 35 129 35q44 0 64 -22l600 -676l473 567q82 98 168 98
q82 0 82 -71z" />
    <glyph glyph-name="Z" unicode="Z" horiz-adv-x="1417" 
d="M1498 -133q0 -53 -42 -93.5t-95 -40.5q-38 0 -93 79q-61 88 -144 135q-93 53 -314 53h-593q-168 0 -168 144q0 85 62 147l839 845h-518q-207 0 -302.5 54.5t-95.5 126.5q0 38 26 67.5t63 29.5q88 0 126 -51q56 -78 87 -95q53 -31 286 -31h486q61 0 87 -8q40 -13 67 -55
q24 -38 24 -86q0 -63 -47 -110l-902 -901h593q172 0 289 -12q279 -26 279 -198z" />
    <glyph glyph-name="bracketleft" unicode="[" horiz-adv-x="593" 
d="M360 5q0 -55 -88.5 -127.5t-145.5 -72.5q-26 0 -51 23q-41 37 -41 132v1437q0 59 49 98q46 37 106 37q37 0 93 -36q59 -40 59 -74q0 -13 -18 -13h-161v-1376l171 -6q27 -1 27 -22z" />
    <glyph glyph-name="backslash" unicode="\" horiz-adv-x="1373" 
d="M1140 -227q0 -19 -39 -19q-103 0 -179 132l-849 1472q-39 68 -39 106q0 17 11 39q13 26 28 26q62 0 186 -215l861 -1491q20 -35 20 -50z" />
    <glyph glyph-name="bracketright" unicode="]" horiz-adv-x="593" 
d="M360 -60q0 -59 -47.5 -97t-107.5 -38q-37 0 -93 36q-59 40 -59 74q0 13 18 13h161v1376l-171 6q-27 1 -27 22q0 55 90 128q87 72 144 72q26 0 51 -23q41 -37 41 -132v-1437z" />
    <glyph glyph-name="asciicircum" unicode="^" horiz-adv-x="1162" 
d="M907 980q0 -63 -41 -63q-22 0 -39.5 12.5t-33.5 26.5l-235 160l-234 -155q-30 -20 -46 -20q-28 0 -52.5 23t-24.5 51q0 29 19 42l252 178q45 32 89 31q13 5 24 5q13 0 40 -18l250 -177q32 -23 32 -96z" />
    <glyph glyph-name="underscore" unicode="_" horiz-adv-x="1029" 
d="M1103 -236q0 -48 -86 -48h-920q-66 0 -66 80q0 64 60 64h892q37 0 77 -29q43 -32 43 -67z" />
    <glyph glyph-name="grave" unicode="`" horiz-adv-x="494" 
d="M273 1142q0 -93 -42 -93q-35 0 -77 89q-86 182 -86 225q0 73 51 73q39 0 82 -61q32 -46 50 -97q22 -62 22 -136z" />
    <glyph glyph-name="a" unicode="a" horiz-adv-x="1231" 
d="M1263 3q0 -10 -27 -18q-23 -7 -35 -7q-168 0 -552 257l-489 -213q-43 -18 -63 -18q-59 0 -59 54q0 31 28 70l303 426q-100 205 -100 255q0 67 91 67q56 0 85 -20q23 -17 50 -68q26 -54 81 -159q85 -152 269 -317q161 -145 335 -247q83 -49 83 -62zM532 351
q-53 48 -104 113l-186 -260z" />
    <glyph glyph-name="b" unicode="b" horiz-adv-x="953" 
d="M798 88q0 -88 -97 -88h-633q-15 0 -30 13t-15 28v775q0 62 92 62h272q221 0 290 -36q74 -39 74 -146q0 -127 -304 -238q-19 -7 -32 -11l358 -300q25 -21 25 -59zM487 670q0 20 -4 37q-8 36 -73 62q-56 23 -108 23h-11q-46 0 -46 -31v-271q0 -1 8 -1q52 0 143 63t91 118z
M539 86h-1l-293 241v-218q0 -24 24 -24h263q7 -1 7 1z" />
    <glyph glyph-name="c" unicode="c" horiz-adv-x="1169" 
d="M1063 333v-4q0 -3 -1 -6q-98 -348 -518 -348q-211 0 -363 109q-164 119 -164 311q0 205 148 353q153 152 374 152q309 0 437 -191q1 -7 1 -11q0 -20 -52 -39q-41 -15 -73 -19l-10 4q-3 5 -9 13q-109 146 -289 146q-149 0 -236 -120q-75 -105 -75 -252q0 -151 87 -251
q93 -109 252 -109q240 0 303 169q18 49 18 89q0 48 47 48q13 0 39.5 -4.5t39.5 -4.5q45 0 44 -35z" />
    <glyph glyph-name="d" unicode="d" horiz-adv-x="1092" 
d="M947 425q0 -80 -49 -169q-67 -122 -202 -190q-129 -66 -280 -66h-348q-44 0 -44 42v774q0 62 91 62h191q248 0 326 -29q137 -52 226 -170.5t89 -253.5zM744 428q0 98 -53 191q-57 99 -147 138q-83 35 -256 35q-43 0 -43 -31v-652q0 -25 24 -25h124q159 0 257 100
q94 96 94 244z" />
    <glyph glyph-name="e" unicode="e" horiz-adv-x="925" 
d="M855 47q0 -38 -35 -55q-20 0 -75 5q-46 3 -73 3h-574q-32 0 -51.5 25t-19.5 53v722q0 28 19.5 53t51.5 25h574q27 0 73 3q55 5 75 5q35 -17 35 -55q0 -37 -28 -76q-32 -43 -72 -43q-25 0 -108 24q-107 30 -233 30q-159 0 -162.5 -4.5t-3.5 -11.5v-247q0 -31 64 -31l278 1
q55 0 55 -32q0 -81 -34 -81q-23 0 -68 12t-68 12h-187q-40 0 -40 -31v-225q0 -7 3.5 -11.5t162.5 -4.5q125 0 233 30q84 24 115 24q40 0 69 -44q24 -38 24 -75z" />
    <glyph glyph-name="f" unicode="f" horiz-adv-x="936" 
d="M1002 787q0 -29 -34 -46q-29 -14 -61 -14q-30 0 -60.5 26.5t-34.5 26.5h-396v-406h192q55 0 112 -21q72 -27 72 -70q0 -28 -34 -45q-29 -15 -61 -15q-30 0 -60.5 27t-35.5 27h-185v-160q0 -46 -42.5 -84.5t-89.5 -38.5q-89 0 -89 123v663h-43q-41 0 -87 37t-46 76
q0 40 47 40q9 0 70 -28q57 -27 97 -27h584q55 0 113 -21q72 -27 72 -70z" />
    <glyph glyph-name="g" unicode="g" horiz-adv-x="1009" 
d="M916 146q-165 -159 -360 -159q-212 0 -369 128q-162 133 -162 328q0 203 157 330q149 120 372 120q154 0 242 -51q84 -48 84 -75q0 -33 -24 -56.5t-59 -23.5q-41 0 -109.5 54.5t-131.5 54.5q-142 0 -239 -110q-91 -103 -91 -237q0 -137 98 -248q104 -118 249 -118
q83 0 157 38q-11 71 -11 135q0 114 46 172q37 45 70 45q47 0 47 -75q0 -22 -2 -65.5t-2 -66.5q0 -62 38 -120z" />
    <glyph glyph-name="h" unicode="h" horiz-adv-x="1061" 
d="M898 117q0 -49 -48 -90.5t-100 -41.5q-76 0 -76 77q0 9 1.5 27.5t1.5 27.5v349h-432v-349q0 -43 -27 -76q-29 -37 -77 -37t-83 34t-35 79v683q0 96 118 96q39 0 71.5 -25.5t32.5 -63.5v-257h432v250q0 43 38 71q34 25 80 25q42 0 72.5 -24t30.5 -65v-690z" />
    <glyph glyph-name="i" unicode="i" horiz-adv-x="407" 
d="M245 155q0 -48 -43 -103q-47 -58 -99 -58q-24 0 -45 17q-35 28 -35 99v690q0 43 39 71q34 25 79 25q43 0 73.5 -24t30.5 -65v-652z" />
    <glyph glyph-name="j" unicode="j" horiz-adv-x="918" 
d="M757 162q0 -114 -139 -178q-110 -51 -241 -51q-84 0 -162 25q-99 32 -128 92q-21 42 -21 69q0 39 25.5 65.5t66.5 26.5q72 0 93 -65l12 -60q7 -35 31.5 -53.5t58.5 -18.5q70 0 127 52.5t57 114.5v607q0 44 38 72q34 26 79 26q43 0 73 -24t30 -64v-636z" />
    <glyph glyph-name="k" unicode="k" horiz-adv-x="1129" 
d="M1003 64q0 -35 -67 -56q-50 -16 -98 -16q-107 0 -143 27l-450 335v-237q0 -52 -62 -89q-54 -32 -109 -32q-51 0 -51 95v687q0 43 39 71q34 26 79 26q43 0 73.5 -24t30.5 -64v-298l488 357q81 59 133 59q60 0 60 -69q0 -51 -20 -69.5t-34 -18.5q-11 0 -34 13.5t-35 13.5
q-15 0 -34 -14l-324 -244q-12 -8 -12 -11q1 -4 6 -7l519 -377q45 -31 45 -58z" />
    <glyph glyph-name="l" unicode="l" horiz-adv-x="946" 
d="M855 49q0 -56 -44 -56q-15 0 -41 3q-30 4 -41 4q-25 2 -57 2h-574q-32 0 -51.5 25t-19.5 54v799q0 64 50 64q39 0 91 -48q46 -44 62 -77q18 -37 18 -99v-570q0 -8 4 -12.5t161 -4.5q104 0 218 31q86 23 110 23q40 0 79 -53q35 -48 35 -85z" />
    <glyph glyph-name="m" unicode="m" horiz-adv-x="1293" 
d="M1127 117q0 -49 -69 -89q-60 -34 -113 -34q-27 0 -34 21q-6 17 -6 52v27q1 17 1 23v494l-285 -371q-17 -22 -41 -22q-23 0 -38 22l-297 432v-533q0 -51 -69 -93q-62 -38 -115 -38q-36 0 -38 51v27v735q0 44 39 72q34 25 79 25q43 0 73.5 -24t30.5 -65v-18l326 -474
l335 432v31q0 43 38 71q34 25 79 25q43 0 73.5 -24t30.5 -65v-690z" />
    <glyph glyph-name="n" unicode="n" horiz-adv-x="1248" 
d="M1090 57q0 -53 -64 -53q-42 0 -81 29q-2 2 -64 59l-636 589v-572q0 -49 -70 -91q-62 -38 -114 -38q-25 0 -33 20q-5 11 -5 57v764q0 44 39 72q34 25 79 25q43 0 73.5 -24t30.5 -65v-30l623 -573v551q0 50 54 94.5t107 44.5q61 0 61 -83v-776z" />
    <glyph glyph-name="o" unicode="o" horiz-adv-x="1245" 
d="M1100 424q0 -78 -48 -168q-66 -122 -208 -197q-138 -72 -288 -72q-213 0 -369 128q-162 133 -162 328q0 203 157 330q149 120 372 120q219 0 380 -131q166 -136 166 -338zM898 428q0 136 -96 248q-103 120 -246 120q-142 0 -239 -110q-91 -103 -91 -237q0 -137 98 -248
q104 -118 249 -118t238 107q87 101 87 238z" />
    <glyph glyph-name="p" unicode="p" horiz-adv-x="873" 
d="M758 641q0 -219 -231 -219q-90 0 -191 34q-61 20 -91 39v-528q0 -75 -72 -75q-45 0 -95 31q-55 36 -55 79v788q0 32 38 57q52 35 267 35q430 0 430 -241zM552 675q0 58 -71 91q-59 26 -137 26q-80 0 -80 -27v-133q0 -44 43 -72q39 -24 95 -24q69 0 109.5 38t40.5 101z
" />
    <glyph glyph-name="q" unicode="q" horiz-adv-x="1267" 
d="M1100 424q0 -99 -64 -194q-58 -87 -153 -148l116 -87q5 -11 5 -25q0 -24 -14 -57q-17 -41 -39 -41q-60 0 -89 42l-7 7l-117 94q-91 -28 -182 -28q-213 0 -369 128q-162 133 -162 328q0 203 157 330q149 120 372 120q219 0 380 -131q166 -136 166 -338zM898 428
q0 136 -96 248q-103 120 -246 120q-142 0 -239 -110q-91 -103 -91 -237q0 -137 98 -248q104 -118 249 -118q36 0 71 8l-64 51q-23 18 -23 46q0 43 65 43q75 0 160 -71q116 103 116 268z" />
    <glyph glyph-name="r" unicode="r" horiz-adv-x="1012" 
d="M1083 -106q0 -25 -41 -45q-34 -18 -58 -18q-31 0 -80 18q-206 72 -359 182q-193 139 -237 301q-50 -1 -50 -33v-221q0 -26 6.5 -77t6.5 -76q0 -51 -72 -51q-66 0 -106 35q-43 36 -43 98q0 7 1 20t1 19v706q0 104 112 104q36 0 108 2.5t108 2.5q156 0 284 -69
q154 -82 154 -220q0 -92 -85 -158q-70 -56 -175 -78q75 -152 213 -247q6 -5 284 -160q28 -16 28 -35zM582 601q0 72 -77 113q-66 34 -156 34q-76 0 -84 -37q-3 -13 -3 -39v-167q0 -65 144 -65q58 0 117 54.5t59 106.5z" />
    <glyph glyph-name="s" unicode="s" horiz-adv-x="901" 
d="M746 238q0 -265 -340 -265q-136 0 -226 75q-95 78 -95 203q0 60 82 60q44 0 68 -48q86 -171 224 -171q43 0 74.5 31.5t31.5 70.5q0 53 -137 111q-71 28 -207 92q-152 85 -152 231q0 127 118 203q104 66 245 66q158 0 243 -118q37 -51 37 -86q0 -61 -82 -61q-36 0 -91 55
q-104 102 -191 102q-45 0 -83.5 -28t-38.5 -66q0 -93 254 -200q266 -112 266 -257z" />
    <glyph glyph-name="t" unicode="t" horiz-adv-x="1410" 
d="M1410 787q0 -28 -34 -45q-28 -15 -61 -15q-30 0 -59.5 26.5t-34.5 26.5h-396v-663q0 -45 -42.5 -84t-90.5 -39q-89 0 -89 123v663h-405q-24 0 -64 -17t-56 -17q-57 0 -57 50q0 82 125 82h1080q55 0 112 -21q72 -27 72 -70z" />
    <glyph glyph-name="u" unicode="u" horiz-adv-x="932" 
d="M770 807q0 -43 -2 -352q0 -85 -2 -255q-3 -114 -109 -168q-83 -43 -212 -43q-116 0 -226 35q-139 44 -177 126q-21 43 -21 115l2 535q0 96 118 96q39 0 71.5 -25.5t32.5 -63.5v-511q0 -84 28 -142q37 -75 112 -75q46 0 93 25q74 39 74 135q0 18 -1.5 54t-1.5 54v453
q0 43 38 71q34 25 79 25q43 0 73.5 -24t30.5 -65z" />
    <glyph glyph-name="v" unicode="v" horiz-adv-x="1088" 
d="M1165 872q0 -21 -12 -43q-14 -27 -35 -27q-14 0 -44 19t-38 19q-10 0 -17 -15l-344 -708q-19 -45 -63 -117q-20 -22 -51 -22q-41 0 -66 29q-11 12 -38 62l-432 798q-6 11 -6 24q0 62 109 62q53 0 64 -20l427 -776l348 702q14 27 68 55q33 17 66 17q64 0 64 -59z" />
    <glyph glyph-name="w" unicode="w" horiz-adv-x="1568" 
d="M1678 872q0 -21 -11 -43q-14 -27 -35 -27q-14 0 -44 19t-38 19q-10 0 -18 -15l-343 -708q-19 -45 -64 -117q-20 -22 -51 -22q-41 0 -67 29q-11 13 -38 62l-166 310l-128 -262q-19 -45 -63 -117q-20 -22 -51 -22q-41 0 -66 29q-11 12 -38 62l-432 798q-6 11 -6 24
q0 62 109 62q53 0 64 -20l427 -776l146 293l-227 417q-6 11 -6 24q0 62 109 62q53 0 65 -20l157 -285q33 75 66 151q42 82 106 115q33 17 66 17q64 0 64 -59q0 -21 -12 -43q-14 -27 -35 -27q-14 0 -44 19t-38 19q-10 0 -17 -15l-120 -245l234 -423l348 702q13 27 68 55
q33 17 65 17q64 0 64 -59z" />
    <glyph glyph-name="x" unicode="x" horiz-adv-x="1291" 
d="M1158 57q0 -29 -51 -47q-41 -15 -78 -15q-93 0 -148 51l-358 332l-385 -350q-15 -14 -31 -14q-41 0 -41 57q0 47 31 76l339 311l-278 256q-4 4 -70 38q-60 31 -60 55q0 31 67 59q39 16 83 16q118 0 213 -88l205 -190l248 229q66 61 138 61q41 0 75 -21q39 -24 39 -64
q0 -19 -13 -39q-16 -23 -39 -23q-11 0 -30 6.5t-29 6.5q-47 0 -110 -57l-193 -177l377 -350q99 -92 99 -119z" />
    <glyph glyph-name="y" unicode="y" horiz-adv-x="1088" 
d="M1172 872q0 -27 -16 -49t-38 -22q-16 0 -40.5 11.5t-35.5 11.5q-12 0 -25 -15l-334 -370v-429q0 -86 -58 -86q-36 0 -86 37q-45 33 -65 65q-12 21 -12 45v334l-436 460q-11 12 -11 25q0 19 18 36q27 27 102 27q38 0 55 -18l436 -451l343 377q63 70 132 70q71 0 71 -59z
" />
    <glyph glyph-name="z" unicode="z" horiz-adv-x="1068" 
d="M1143 -80q0 -41 -34 -71t-78 -30q-32 0 -76 58q-60 79 -147 105q-61 18 -184 18h-453q-134 0 -134 108q0 62 48 108l602 556h-357q-156 0 -230.5 39t-74.5 94q0 30 22 53t54 23q70 0 101 -38q15 -23 62 -62q37 -20 206 -20h374q90 0 123 -47q20 -28 20 -64q0 -48 -38 -83
l-649 -594h413q127 0 214 -8q216 -19 216 -145z" />
    <glyph glyph-name="braceleft" unicode="{" horiz-adv-x="678" 
d="M445 -121q0 -65 -59 -65q-74 0 -152.5 74.5t-78.5 181.5v382q0 122 -121 162q122 65 121 161l-5 519q-1 69 79.5 155t149.5 86q22 0 43 -14.5t21 -35.5q0 -12 -60 -59t-60 -73l4 -598q1 -116 -91 -141q91 -34 91 -131q0 -67 -2 -200t-2 -200q0 -71 61 -130t61 -74z" />
    <glyph glyph-name="bar" unicode="|" horiz-adv-x="440" 
d="M207 -33q0 -218 -65 -218q-21 0 -63 41q-45 44 -45 138v1471q0 135 105 135q68 0 68 -76v-1491z" />
    <glyph glyph-name="braceright" unicode="}" horiz-adv-x="678" 
d="M445 735q-122 -65 -121 -161l5 -519q0 -69 -80.5 -155t-148.5 -86q-22 0 -43 14.5t-21 35.5q0 12 60 59t60 73l-4 598q-1 116 91 141q-91 34 -91 131q0 67 2 200t2 200q0 71 -61 130t-61 74q0 65 59 65q74 0 152.5 -74.5t78.5 -181.5v-382q0 -122 121 -162z" />
    <glyph glyph-name="asciitilde" unicode="~" horiz-adv-x="1334" 
d="M1109 653q0 -14 -33 -41q-107 -87 -347 -87q-4 0 -95.5 27.5t-160.5 27.5q-23 0 -71 -23t-73 -23q-97 0 -97 56q0 55 99 88q75 25 146 25q78 0 148 -24q75 -26 100 -26q39 0 111.5 25t110.5 25q162 0 162 -50z" />
    <glyph glyph-name="delete_Cc" horiz-adv-x="1234" 
d="M1152 -267h-1070v1698h1070v-1698zM1070 -185v1534h-906v-1534h906zM937 933h-641v97h554v249h87v-346zM937 474h-641v346h87v-251h164v233h87v-233h216v251h87v-346zM937 -55h-641v174q0 66 12 108q28 92 120 141q80 43 189 43q110 0 194 -48q97 -56 118 -157
q8 -39 8 -92v-169zM854 42v56q0 51 -6 77q-35 135 -232 135q-201 0 -233 -141q-5 -24 -5 -71v-56h476zM500 1896zM500 -700z" />
    <glyph glyph-name="nonbreakingspace" unicode="&#xa0;" horiz-adv-x="704" 
 />
    <glyph glyph-name="currency" unicode="&#xa4;" horiz-adv-x="1384" 
d="M1177 151l-98 -97l-135 135q-114 -82 -252 -82q-141 0 -255 84l-136 -137l-94 94l136 136q-83 113 -83 255q0 138 82 252l-135 135l98 97l134 -134q113 82 253 82q142 0 255 -83l136 135l93 -93l-136 -136q84 -114 84 -255q0 -140 -82 -253zM999 539q0 127 -90 217
t-217 90t-217 -90t-90 -217t90 -217t217 -90t217 90t90 217z" />
    <glyph glyph-name="brokenbar" unicode="&#xa6;" horiz-adv-x="453" 
d="M256 930q0 -218 -64 -218q-21 0 -63 41q-46 44 -46 139v447q0 135 106 135q67 0 67 -76v-468zM256 -93q0 -218 -64 -218q-21 0 -63 41q-46 44 -46 138v508q0 136 106 136q67 0 67 -77v-528z" />
    <glyph glyph-name="section" unicode="&#xa7;" horiz-adv-x="1095" 
d="M982 129q0 -292 -268 -292q-74 0 -176 33q-113 36 -154 83q-48 57 -48 86q0 30 14 59q18 35 45 35q9 0 28 -34q26 -45 84 -75q55 -28 110 -28q152 0 152 176q0 96 -126 139q-58 -30 -111 -30q-49 0 -115 17q-273 71 -273 315q0 140 90 220q44 39 94 39q-87 69 -87 155
q0 79 60 169q78 118 240 118q92 0 187 -48q158 -81 158 -153q0 -49 -12 -75l-19 -3q-36 51 -111 89t-138 38q-65 0 -107.5 -48t-42.5 -114q0 -61 45 -115q41 0 104 -11q44 -7 131 -24q93 -20 151.5 -92t58.5 -168q0 -92 -17 -136q-24 -66 -96 -89q149 -70 149 -236zM733 632
q0 72 -79 110q-62 31 -142 31q-184 0 -184 -134q0 -87 74 -141q67 -49 157 -49q174 0 174 183z" />
    <glyph glyph-name="guillemotleft" unicode="&#xab;" horiz-adv-x="850" 
d="M763 661q0 -29 -31 -60l-277 -277l274 -272q15 -15 15 -39q0 -23 -19.5 -42.5t-43.5 -19.5q-17 0 -31 15l-289 290q-28 28 -28 90q0 19 13 31l289 290q26 25 77 25t51 -31zM521 661q0 -29 -30 -60l-278 -277l275 -272q15 -15 15 -39q0 -23 -20 -42.5t-44 -19.5
q-16 0 -31 15l-289 290q-28 28 -28 90q0 19 13 31l289 290q26 25 77 25t51 -31z" />
    <glyph glyph-name="logicalnot" unicode="&#xac;" horiz-adv-x="1334" 
d="M1120 244q0 -67 -82 -67q-63 0 -63 61v302h-676q-68 0 -68 82q0 62 62 62h710q38 0 77.5 -30.5t39.5 -64.5v-345z" />
    <glyph glyph-name="degree" unicode="&#xb0;" horiz-adv-x="908" 
d="M861 1240q0 -149 -134 -257q-127 -102 -279 -102q-161 0 -278 106q-122 109 -122 268q0 165 119 269q113 98 281 98q167 0 287 -107q126 -111 126 -275zM711 1242q0 114 -73 208q-79 101 -190 101q-109 0 -183 -94q-69 -87 -69 -198q0 -115 75 -207q80 -98 192 -98
q110 0 182 90q66 84 66 198z" />
    <glyph glyph-name="plusminus" unicode="&#xb1;" horiz-adv-x="1334" 
d="M1120 589q0 -49 -89 -49h-304v-296q0 -67 -82 -67q-63 0 -63 61v302h-283q-68 0 -68 82q0 62 62 62h289v263q0 39 31 79t65 40q49 0 49 -89v-293h276q38 0 77.5 -30.5t39.5 -64.5zM1120 -95q0 -49 -89 -49h-732q-68 0 -68 82q0 62 62 62h710q38 0 77.5 -30.5t39.5 -64.5z
" />
    <glyph glyph-name="paragraph" unicode="&#xb6;" horiz-adv-x="1160" 
d="M1047 1300q0 -48 -59 -48h-75q-22 0 -22 -24v-1311q0 -141 -70 -141q-47 0 -62 22q-11 17 -11 67v1387h-203v-1335q0 -141 -70 -141q-47 0 -62 22q-11 17 -11 67v1006q-111 0 -188 68q-81 70 -81 180t88 176q80 60 193 60h545q88 0 88 -55z" />
    <glyph glyph-name="middot" unicode="&#xb7;" horiz-adv-x="356" 
d="M309 766q0 -20 -3 -32q-10 -37 -69 -62q-50 -22 -95 -22q-40 0 -69 46q-26 40 -26 82q0 52 56 86q48 28 103 28q46 0 76 -41q27 -38 27 -85z" />
    <glyph glyph-name="guillemotright" unicode="&#xbb;" horiz-adv-x="850" 
d="M746 346q0 -60 -30 -90l-287 -290q-15 -15 -33 -15q-24 0 -42.5 20t-18.5 44q0 22 15 37l273 272l-277 277q-30 30 -30 60q0 31 53 31q48 0 74 -25l289 -290q14 -13 14 -31zM504 346q0 -61 -29 -90l-288 -290q-15 -15 -32 -15q-24 0 -43.5 20t-19.5 44q0 22 15 37
l273 272l-276 277q-30 31 -30 60q0 31 52 31q50 0 76 -25l289 -290q13 -12 13 -31z" />
    <glyph glyph-name="multiply" unicode="&#xd7;" horiz-adv-x="1334" 
d="M1095 955q0 -28 -40 -69l-286 -286l281 -280q17 -18 17 -43q0 -30 -22 -56t-52 -26q-24 0 -42 18l-284 285l-271 -271q-18 -18 -43 -18q-30 0 -56 21.5t-26 50.5q0 25 19 44l275 275l-257 256q-27 28 -34 77q-6 50 19 75q12 12 28 12q28 0 69 -40l277 -278l266 266
q27 27 77 33q45 6 69 -14q16 -13 16 -32z" />
    <glyph glyph-name="divide" unicode="&#xf7;" horiz-adv-x="1334" 
d="M809 1001q0 -20 -3 -32q-10 -37 -69 -63q-50 -21 -95 -21q-40 0 -69 45q-26 41 -26 83q0 52 56 85q48 29 103 29q46 0 76 -41q27 -38 27 -85zM1120 589q0 -49 -89 -49h-732q-68 0 -68 82q0 62 62 62h710q38 0 77.5 -30.5t39.5 -64.5zM809 196q0 -20 -3 -32
q-10 -37 -69 -62q-50 -22 -95 -22q-40 0 -69 46q-26 40 -26 82q0 52 56 86q48 28 103 28q46 0 76 -41q27 -38 27 -85z" />
    <glyph glyph-name="florin" unicode="&#x192;" horiz-adv-x="1039" 
d="M985 693q0 -46 -56 -46q-27 0 -78 54q-90 97 -235 97q-136 0 -136 -120v-267h213q56 0 114 -25q70 -29 70 -73q0 -28 -29.5 -45t-63.5 -17q-30 0 -77 48q-11 12 -18 12h-209v-607q0 -44 -36 -71t-81 -27q-42 0 -72.5 24t-30.5 64v617h-53q-26 0 -68 -20q-38 -18 -55 -18
q-55 0 -55 51q0 42 41 66q35 21 83 21h107v207q0 135 138 215q116 67 265 67q247 0 312 -163q10 -24 10 -44z" />
    <glyph glyph-name="Phi" unicode="&#x3a6;" horiz-adv-x="2107" 
d="M1911 615q0 -122 -89 -254q-107 -158 -321 -259q-187 -89 -402 -113v-254q0 -49 -79 -91q-70 -37 -124 -37q-50 0 -50 72v308q-304 30 -535 185q-277 185 -277 463q0 289 272 468q225 148 540 175v104q0 24 95 50q82 22 118 22q40 0 40 -77v-102q307 -34 536 -190
q276 -188 276 -470zM1664 619q0 101 -57 205q-152 279 -508 336v-1061q173 21 309 105q149 92 216 240q40 88 40 175zM846 103v1060q-171 -23 -308 -108q-149 -93 -219 -238q-42 -88 -42 -175q0 -102 59 -207q154 -274 510 -332z" />
    <glyph glyph-name="chi" unicode="&#x3c7;" horiz-adv-x="1291" 
d="M1158 57q0 -29 -51 -47q-41 -15 -78 -15q-93 0 -148 51l-358 332l-385 -350q-15 -14 -31 -14q-41 0 -41 57q0 47 31 76l339 311l-278 256q-4 4 -70 38q-60 31 -60 55q0 31 67 59q39 16 83 16q118 0 213 -88l205 -190l248 229q66 61 138 61q41 0 75 -21q39 -24 39 -64
q0 -19 -13 -39q-16 -23 -39 -23q-11 0 -30 6.5t-29 6.5q-47 0 -110 -57l-193 -177l377 -350q99 -92 99 -119z" />
    <glyph glyph-name="psi" unicode="&#x3c8;" horiz-adv-x="1738" 
d="M1662 734q0 -21 -12 -46q-14 -30 -34 -30q-9 0 -26.5 8t-26.5 8q-18 0 -35 -14l-610 -500v-227q0 -49 -36 -96q-40 -53 -92 -53q-23 0 -44 17q-35 29 -35 106v248l-688 559q-15 12 -15 35q0 14 9 25q14 19 93 19q63 0 108 -38l493 -410v414q0 41 60 68q51 22 99 22
t48 -80v-466l572 466q58 47 103 47q69 0 69 -82z" />
    <glyph glyph-name="shima" unicode="&#x3ed;" horiz-adv-x="1330" 
d="M1262 1120q0 -28 -69 -36q-45 -1 -91 -2q-85 -6 -206 -37q-139 -36 -191 -75q176 -48 288 -181q116 -138 116 -317q0 -89 -49 -188q-67 -135 -212 -218q-140 -80 -295 -80q-217 0 -377 143q-165 149 -165 363q0 183 125.5 331t446.5 275q307 121 515 121q63 0 87 -10
t50.5 -38t26.5 -51zM896 475q0 149 -95 272q-103 133 -248 133q-142 0 -240 -122q-91 -114 -91 -260q0 -150 98 -271q104 -129 250 -129t239 118q87 111 87 259z" />
    <glyph glyph-name="hyphennobreak" unicode="&#x2011;" horiz-adv-x="0" 
 />
    <glyph glyph-name="endash" unicode="&#x2013;" horiz-adv-x="1024" 
d="M927 528q0 -48 -86 -48h-716q-67 0 -67 81q0 63 61 63h689q37 0 77 -29q42 -32 42 -67z" />
    <glyph glyph-name="emdash" unicode="&#x2014;" horiz-adv-x="2048" 
d="M1951 528q0 -48 -86 -48h-1740q-67 0 -67 81q0 63 61 63h1713q37 0 77 -29q42 -32 42 -67z" />
    <glyph glyph-name="quoteleft" unicode="&#x2018;" horiz-adv-x="569" 
d="M418 1531q0 -5 -63 -68t-63 -93q0 -16 47.5 -39.5t47.5 -91.5q0 -47 -34 -80.5t-81 -33.5q-53 0 -87 41t-34 95q0 85 73 191q78 114 158 114q36 0 36 -35z" />
    <glyph glyph-name="quoteright" unicode="&#x2019;" horiz-adv-x="569" 
d="M418 1430q0 -85 -73 -191q-78 -114 -158 -114q-36 0 -36 35q0 5 63 68t63 93q0 16 -47.5 39.5t-47.5 91.5q0 47 34 80.5t81 33.5q53 0 87 -41t34 -95z" />
    <glyph glyph-name="quotesinglbase" unicode="&#x201a;" horiz-adv-x="569" 
d="M418 90q0 -85 -73 -191q-78 -114 -158 -114q-36 0 -36 35q0 5 63 68t63 93q0 16 -47.5 39.5t-47.5 91.5q0 47 34 80.5t81 33.5q53 0 87 -41t34 -95z" />
    <glyph glyph-name="quotedblleft" unicode="&#x201c;" horiz-adv-x="929" 
d="M778 1531q0 -5 -63 -68t-63 -93q0 -16 47.5 -39.5t47.5 -91.5q0 -47 -34 -80.5t-81 -33.5q-53 0 -87 41t-34 95q0 85 73 191q78 114 158 114q36 0 36 -35zM418 1531q0 -5 -63 -68t-63 -93q0 -16 47.5 -39.5t47.5 -91.5q0 -47 -34 -80.5t-81 -33.5q-53 0 -87 41t-34 95
q0 85 73 191q78 114 158 114q36 0 36 -35z" />
    <glyph glyph-name="quotedblright" unicode="&#x201d;" horiz-adv-x="929" 
d="M778 1430q0 -85 -73 -191q-78 -114 -158 -114q-36 0 -36 35q0 5 63 68t63 93q0 16 -47.5 39.5t-47.5 91.5q0 47 34 80.5t81 33.5q53 0 87 -41t34 -95zM418 1430q0 -85 -73 -191q-78 -114 -158 -114q-36 0 -36 35q0 5 63 68t63 93q0 16 -47.5 39.5t-47.5 91.5
q0 47 34 80.5t81 33.5q53 0 87 -41t34 -95z" />
    <glyph glyph-name="quotedblright" unicode="&#x2ee;" horiz-adv-x="929" 
d="M778 1430q0 -85 -73 -191q-78 -114 -158 -114q-36 0 -36 35q0 5 63 68t63 93q0 16 -47.5 39.5t-47.5 91.5q0 47 34 80.5t81 33.5q53 0 87 -41t34 -95zM418 1430q0 -85 -73 -191q-78 -114 -158 -114q-36 0 -36 35q0 5 63 68t63 93q0 16 -47.5 39.5t-47.5 91.5
q0 47 34 80.5t81 33.5q53 0 87 -41t34 -95z" />
    <glyph glyph-name="quotedblbase" unicode="&#x201e;" horiz-adv-x="929" 
d="M778 90q0 -85 -73 -191q-78 -114 -158 -114q-36 0 -36 35q0 5 63 68t63 93q0 16 -47.5 39.5t-47.5 91.5q0 47 34 80.5t81 33.5q53 0 87 -41t34 -95zM418 90q0 -85 -73 -191q-78 -114 -158 -114q-36 0 -36 35q0 5 63 68t63 93q0 16 -47.5 39.5t-47.5 91.5q0 47 34 80.5
t81 33.5q53 0 87 -41t34 -95z" />
    <glyph glyph-name="dagger" unicode="&#x2020;" horiz-adv-x="675" 
d="M667 1145q0 -34 -74 -34h-219v-912q0 -51 -67 -51q-48 0 -48 45v918h-198q-53 0 -53 66q0 48 47 48h204v278q0 31 25.5 67t55.5 36q34 0 34 -73v-308h190q30 0 66.5 -25.5t36.5 -54.5z" />
    <glyph glyph-name="daggerdbl" unicode="&#x2021;" horiz-adv-x="675" 
d="M667 885q0 -34 -74 -34h-219v-652q0 -51 -67 -51q-48 0 -48 45v658h-198q-53 0 -53 66q0 48 47 48h204v186h-168q-53 0 -53 66q0 48 47 48h174v238q0 31 25.5 67t55.5 36q34 0 34 -73v-268h160q30 0 66.5 -25.5t36.5 -54.5q0 -34 -74 -34h-189v-186h190q30 0 66.5 -25.5
t36.5 -54.5z" />
    <glyph glyph-name="bullet" unicode="&#x2022;" horiz-adv-x="608" 
d="M505 853q0 -30 -5 -48q-14 -56 -103 -94q-75 -33 -143 -33q-60 0 -104 69q-38 61 -38 124q0 78 83 128q72 44 156 44q68 0 113 -63q41 -56 41 -127z" />
    <glyph glyph-name="ellipsis" unicode="&#x2026;" horiz-adv-x="1306" 
d="M1084 100q0 -19 -3 -30q-9 -35 -64 -59q-47 -20 -90 -20q-37 0 -65 42q-24 38 -24 78q0 49 52 80q45 27 98 27q42 0 70 -39q26 -35 26 -79zM710 100q0 -19 -2 -30q-9 -35 -65 -59q-47 -20 -89 -20q-38 0 -65 42q-24 38 -24 78q0 49 52 80q45 27 97 27q43 0 71 -39
q25 -35 25 -79zM337 100q0 -19 -3 -30q-9 -35 -64 -59q-47 -20 -90 -20q-37 0 -64 42q-25 38 -25 78q0 49 53 80q45 27 97 27q42 0 71 -39q25 -35 25 -79z" />
    <glyph glyph-name="perthousand" unicode="&#x2030;" horiz-adv-x="2324" 
d="M2267 60q0 -85 -22 -159q-35 -117 -127 -197q-97 -84 -215 -84q-170 0 -275 145q-95 131 -95 308q0 169 95 298q105 143 269 143q122 0 224 -90q146 -128 146 -364zM1686 1401q0 -38 -42 -38q-21 0 -61 9.5t-61 9.5q-87 0 -148 -64q-19 -19 -250 -301l-564 -687
q-97 -121 -293 -360q-36 -39 -71 -79q-43 -48 -62 -87q-13 -27 -25 -55q-17 -27 -51 -27q-13 0 -32.5 13t-19.5 26q0 18 36 61l1371 1664q37 45 118 45q56 0 104 -36q51 -39 51 -94zM737 1023q0 -85 -22 -159q-34 -117 -126 -196q-98 -85 -216 -85q-170 0 -275 146
q-95 131 -95 307q0 170 95 299q105 142 270 142q121 0 223 -89q146 -128 146 -365zM1432 60q0 -85 -21 -159q-35 -117 -127 -197q-98 -84 -215 -84q-170 0 -276 145q-95 131 -95 308q0 169 95 298q105 143 270 143q121 0 223 -90q146 -128 146 -364zM2118 -16
q0 151 -81 288.5t-179 137.5q-88 0 -139 -98q-40 -79 -40 -175q0 -128 62 -252q74 -150 190 -150q56 0 107 43q80 68 80 206zM588 948q0 150 -81 288t-178 138q-89 0 -139 -99q-41 -79 -41 -174q0 -129 62 -253q75 -150 190 -150q56 0 107 43q80 68 80 207zM1283 -16
q0 151 -80.5 288.5t-178.5 137.5q-88 0 -139 -98q-41 -79 -41 -175q0 -128 62 -252q75 -150 190 -150q56 0 108 43q79 68 79 206z" />
    <glyph glyph-name="guilsinglleft" unicode="&#x2039;" horiz-adv-x="850" 
d="M521 661q0 -29 -30 -60l-278 -277l275 -272q15 -15 15 -39q0 -23 -20 -42.5t-44 -19.5q-16 0 -31 15l-289 290q-28 28 -28 90q0 19 13 31l289 290q26 25 77 25t51 -31z" />
    <glyph glyph-name="guilsinglright" unicode="&#x203a;" horiz-adv-x="850" 
d="M746 346q0 -60 -30 -90l-287 -290q-15 -15 -33 -15q-24 0 -42.5 20t-18.5 44q0 22 15 37l273 272l-277 277q-30 30 -30 60q0 31 53 31q48 0 74 -25l289 -290q14 -13 14 -31z" />
    <glyph glyph-name="Euro" unicode="&#x20ac;" horiz-adv-x="1536" 
d="M1442 1097q0 -33 -28 -63t-60 -30q-15 0 -27 12q-17 20 -52 58q-113 108 -309 108q-152 0 -260 -100q-97 -91 -142 -245h577q80 0 80 -46q0 -33 -38 -61t-72 -28h-574q-5 -44 -5 -83q0 -24 3 -58h486q80 0 80 -46q0 -34 -37.5 -61.5t-72.5 -27.5h-432q47 -163 161 -255
q119 -97 285 -97q209 0 304 85q17 15 25 15q43 0 43 -65q0 -53 -68 -82q-151 -65 -343 -65q-236 0 -424 118q-204 128 -258 346h-162q-57 0 -57 61q0 74 63 74h139q-1 70 12 141h-157q-57 0 -57 61q0 74 63 74h189q78 206 250 330q176 128 392 128q283 0 441 -127
q42 -34 42 -71z" />
  </font>
</defs>
</svg>
